Фильм эта дурацкая любовь скачать через торрент


Скачать фильм Эта - дурацкая

Размер: 2.19 GB | Добавлен: 5 лет 11 мес. назад | Торрент скачан:505 раз
Реклама Дарим 3000 рублей за регистрацию, не упусти свой шанс получить шикарный бонус!!!

01-12-2011 17:13 Эта - дурацкая - любовь Скачать торрент  

Эта - дурацкая - любовь / Crazy, Stupid, Love

Страна: СШАЖанр: драма, мелодрама, комедияПродолжительность: 01:58:06Перевод: Дублированный + Оригинальная дорожка (Отдельно)Год 2011Режиссер: Гленн Фикарра / Glenn Ficarra, Джон Рекуа / John RequaВ ролях: Стив Карелл, Райан Гослинг, Джулианна Мур, Эмма Стоун, Аналей Типтон, Йон Бобо, Джои Кинг, Мариса Томей, Бет Литлфорд, Джон Кэрролл Линч.Описание: У Кола Уивера, пуританских взглядов семьянина в возрасте «чуть-чуть за сорок», не жизнь, а мечта - хорошая работа, прекрасный дом, замечательные дети и брак со школьной возлюбленной. Но когда Кол узнает, что его жена Эмили изменила ему и хочет развода, его «идеальная» жизнь быстро рушится. Хуже того, говоря современным языком, Кол, который уже пару десятилетий не ходил на свидания, являет собой настоящего «лоха».И вот, проводя все свое свободное время в баре в дурном расположении духа, несчастный Кол становится протеже обаятельного («чуть-чуть за тридцать») игрока Джейкоба Палмера. Пытаясь помочь Колу забыть жену и начать собственную жизнь, Джейкоб открывает ему глаза на многочисленные возможности, открывающиеся перед ним: кокетливые женщины, крепкие напитки и чувство стиля, которое нельзя найти в дешевой парикмахерской или магазине распродаж.Кол и Эмили - не единственные, кто ищут любовь, причем, возможно, совершенно не там, где нужно: тринадцатилетний Робби, сын Кола, сходит с ума по своей семнадцатилетней няне Джессике, а та скрывает свою влюбленность в его отца. И несмотря на новый облик и новые завоевания на любовном фронте, единственное, что Кол не может «переупрямить», - это собственное сердце, которое ведет его туда, с чего все когда-то начиналось.Качество: BDRip-AVC Формат: MKVВидео кодек: H.26xАудио кодек: AC3Видео: 1056 x 440 / 2.40:1 / 2633 kbps / 23,976 fpsАудио: Русский / AC3 Dolby Digital / 48 KHz / 448 kbps / 3/2 (L,C,R,l,r) + LFE chАудио 2: Английский / AC3 Dolby Digital / 48 KHz / 448 kbps / 3/2 (L,C,R,l,r) + LFE ch

Скачать Эта - дурацкая - любовь через торрент http://pic.pb.wtf/images/2011/ympwhkix8q.png Скачать фильм Эта - дурацкая - любовь через торрент бесплантно в хорошем качестве Описание: У Кола Уивера, пуританских взглядов семьянина в возрасте «чуть-чуть за сорок», не жизнь, а мечта - хорошая работа, прекрасный ... 2011-12-01 17:13 10 10 4

Loading...

Loading...

Рекламный пират

01-12-2011 17:17 Эта - дурацкая - любовь Скачать торрент  

01-12-2011 17:52 Эта - дурацкая - любовь Скачать торрент  

sasoru8 писал(а):

Как фильм?

хороший

Дорогой пользователь! Огромная просьба, поблагодарите релизера, оцените раздачу и оставьте свои комментарий, если Вы скачали Эта - дурацкая - любовь через торрент бесплатно! Внесите свою лепту в развитие PiratBit!

Комментировать посты могут только пользователи прошедшие не сложную регистрацию

Эта - дурацкая - любовь через торрент Скачать бесплатно Эта - дурацкая - любовь Эта - дурацкая - любовь скачать торрент Эта - дурацкая - любовь смотреть онлайн Cкачать фильм Эта - дурацкая - любовь бесплатно Эта - дурацкая - любовь скачать торрент в хорошем качестве Эта - дурацкая - любовь смотреть онлайн бесплатно в хорошем качестве

Вы не можете начинать темыВы не можете отвечать на сообщенияВы не можете редактировать свои сообщенияВы не можете удалять свои сообщенияВы не можете голосовать в опросахВы не можете прикреплять файлы к сообщениямВы можете скачивать файлы

piratbit.ru

Скачать фильм Эта дурацкая любовь (2011) через торрент

18 января 2016 11:17 Эта - дурацкая - любовь / Crazy, Stupid, Love. (2011) Blu-Ray | D | Лицензия .torrent   [Информация о файле (нажмите для просмотра)] Перевод: Дублированный (Лицензия, Blu-ray)Кодек: MPEG-4 AVCКачество: Blu-Ray (1080p)Видео: 1920x1080 ~ 13928 kbps / 23,976 fps /Аудио#9: Russian Dolby Digital Audio 5.1 / 48 kHz / 640 kbps / DN -4dBСубтитры: Английский, Арабский, Хорватский, Чешский, Датский, Голландский, Финский, Французский, Немецкий, Греческий, Иврит, Венгерский, Итальянский, Японский, Норвежский, Польский, Португальский, Румынский,Русский, Словенский, Испанский, Шведский, Турецкий 25,99 Gb 33 14 18 января 2016 11:17 Эта - дурацкая - любовь / Crazy, Stupid, Love (2011) BDRip от New-Team | P .torrent   [Информация о файле (нажмите для просмотра)] Перевод: Профессиональный (дублированный)Субтитры: нетКонтейнер: AVIВидео: 688x288 (2.40:1), 23,976 fps, XviD MPEG-4 Visual ~ 747 kbps avg, 0.157 bit/pixelАудио: 48 kHz, MP3, 2 ch, ~ 128.00 kbps avgВидео: Идентификатор : 0 Формат : MPEG-4 Visual Профиль формата : Advanced [email protected] Параметр BVOP формата : 1 Параметр QPel формата : Нет Параметр GMC формата : Без точки перехода Параметр матрицы формата : Выборочная Идентификатор кодека : XVID Идентификатор кодека/Подсказка : XviD Продолжительность : 1 ч. 58 м. Битрейт : 747 Кбит/сек Ширина : 688 пикселей Высота : 288 пикселей Соотношение сторон : 2,40:1 Частота кадров : 23,976 кадра/сек Цветовое пространство : YUV Субдискретизация насыщенности : 4:2:0 Битовая глубина : 8 бит Тип развёртки : Прогрессивная Метод сжатия : С потерями Бит/(Пиксели*Кадры) : 0.157 Размер потока : 631 Мбайт (84%) Библиотека кодирования : XviD 64Аудио: Идентификатор : 1 Формат : MPEG Audio Версия формата : Version 1 Профиль формата : Layer 3 Режим : Joint stereo Расширение режима : MS Stereo Идентификатор кодека : 55 Идентификатор кодека/Подсказка : MP3 Продолжительность : 1 ч. 58 м. Вид битрейта : Постоянный Битрейт : 128 Кбит/сек Каналы : 2 канала Частота : 48,0 КГц Метод сжатия : С потерями Размер потока : 108 Мбайт (14%) Выравнивание : Соединение по промежуткам Продолжительность промежутка : 42 мс. (1,00 видеокадр) Время предзагрузки промежутка : 504 мс. Библиотека кодирования : LAME 746,72 Mb 69 6 18 января 2016 11:17 Эта - дурацкая - любовь / Crazy, Stupid, Love (2011) HDRip от Scarabey | Лицензия .torrent   [Информация о файле (нажмите для просмотра)] Перевод: Профессиональный (дублированный)Видео: 720x304 (2.37:1), 23.976 fps, XviD build 50 ~1365 kbps avg, 0.26 bit/pixelАудио: 48 kHz, AC3 Dolby Digital, 3/2 (L,C,R,l,r) + LFE ch, ~384.00 kbps avg 1,45 Gb 858 27 18 января 2016 11:17 Эта - дурацкая - любовь / Crazy, Stupid, Love (2011) BDRip-AVC от New-Team | D .torrent   [Информация о файле (нажмите для просмотра)] Перевод: Профессиональный (дублированный)Субтитры: РусскийКонтейнер: MKVВидео: 960x400 (2,40:1), 23,976 fps, h364 ~ 1370 kbps avg, 0.149 bit/pixelАудио: 48 kHz, AC3, 6 ch, 384.00 kbps ConstantВидео: Идентификатор : 1 Формат : AVC Формат/Информация : Advanced Video Codec Профиль формата : [email protected] Параметр CABAC формата : Да Параметр ReFrames формата : 10 кадров Идентификатор кодека : V_MPEG4/ISO/AVC Продолжительность : 1 ч. 58 м. Битрейт : 1370 Кбит/сек Ширина : 960 пикселей Высота : 400 пикселей Соотношение сторон : 2,40:1 Частота кадров : 23,976 кадра/сек Цветовое пространство : YUV Субдискретизация насыщенности : 4:2:0 Битовая глубина : 8 бит Тип развёртки : Прогрессивная Бит/(Пиксели*Кадры) : 0.149 Размер потока : 1,10 Гбайт (76%) Заголовок : Источник Blu-ray Библиотека кодирования : x264 core 119 r2106 07efeb4 Настройки программы : cabac=1 / ref=10 / deblock=1:-3:-3 / analyse=0x3:0x113 / me=umh / subme=9 / psy=1 / psy_rd=1.00:0.10 / mixed_ref=1 / me_range=32 / chroma_me=1 / trellis=2 / 8x8dct=1 / cqm=0 / deadzone=21,11 / fast_pskip=1 / chroma_qp_offset=-3 / threads=9 / sliced_threads=0 / nr=0 / decimate=1 / interlaced=0 / bluray_compat=0 / constrained_intra=0 / bframes=10 / b_pyramid=2 / b_adapt=2 / b_bias=0 / direct=3 / weightb=1 / open_gop=0 / weightp=0 / keyint=250 / keyint_min=23 / scenecut=40 / intra_refresh=0 / rc_lookahead=60 / rc=2pass / mbtree=1 / bitrate=1370 / ratetol=1.0 / qcomp=0.60 / qpmin=0 / qpmax=69 / qpstep=4 / cplxblur=20.0 / qblur=0.5 / ip_ratio=1.40 / aq=2:0.90 Язык : English Default : Да Forced : НетАудио: Идентификатор : 2 Формат : AC-3 Формат/Информация : Audio Coding 3 Расширение режима : CM (complete main) Идентификатор кодека : A_AC3 Продолжительность : 1 ч. 58 м. Вид битрейта : Постоянный Битрейт : 384 Кбит/сек Каналы : 6 каналов Расположение каналов : Front: L C R, Side: L R, LFE Частота : 48,0 КГц Битовая глубина : 16 бит Метод сжатия : С потерями Размер потока : 324 Мбайт (22%) Заголовок : Источник Blu-ray DUB Язык : Russian Default : Да Forced : Нет 1,45 Gb 239 12 18 января 2016 11:17 Эта - дурацкая - любовь / Crazy, Stupid, Love (2011) DVDRip | КПК от Generalfilm .torrent   [Информация о файле (нажмите для просмотра)] Перевод: Профессиональный (полное дублирование)Кодек: x264Качество: DVDRip | КПКВидео: кодек: x264, формат: mp4, размер кадра: 480x192, битрейт: 400 кб/сЗвук: язык: русский, кодек: AAC LC 2.0, битрейт: 100 кб/с 424,91 Mb 12 2 18 января 2016 11:17 Эта - дурацкая - любовь / Crazy, Stupid, Love. (2011) BDRip-AVC от HQ-ViDEO .torrent   [Информация о файле (нажмите для просмотра)] Перевод: Русский дублированный (Лицензия) + Оригинальная дорожка (Английская)Субтитры: Русские (форс. + полные), АнглийскиеВидео: H.264 / 1056 x 440 / 2.40:1 / 2633 kbps / 23,976 fpsАудио 1: Русский / AC3 Dolby Digital / 48 KHz / 448 kbps / 3/2 (L,C,R,l,r) + LFE chАудио 2: Английский / AC3 Dolby Digital / 48 KHz / 448 kbps / 3/2 (L,C,R,l,r) + LFE ch 2,91 Gb 16 2 18 января 2016 11:17 Эта - дурацкая - любовь / Crazy, Stupid, Love. (2011) BDRip от HQ-ViDEO .torrent   [Информация о файле (нажмите для просмотра)] Перевод: Русский дублированный (Лицензия) + Оригинальная дорожка (Английская)Субтитры: Русские (форс. + полные), АнглийскиеВидео: XviD / 720 x 304 / 2.37:1 / 1735 kbps / 23,976 fpsАудио 1: Русский / AC3 Dolby Digital / 48 KHz / 448 kbps / 3/2 (L,C,R,l,r) + LFE chАудио 2: Английский / AC3 Dolby Digital / 48 KHz / 448 kbps / 3/2 (L,C,R,l,r) + LFE ch 2,19 Gb 144 8 18 января 2016 11:17 Эта - дурацкая - любовь / Crazy, Stupid, Love (2011) BDRip от HQCLUB .torrent   [Информация о файле (нажмите для просмотра)] Перевод: Профессиональный (полное дублирование) + Оригинальная звуковая дорожка + Профессиональный (полное дублирование)УкраинскийСубтитры: Русские Украинские АнглийскиеФормат: AVIКачество: BDRip (источник:Видео: 720x304 (2.37:1), 23.976 fps, XviD build 50 ~1870 kbps avg, 0.36 bit/pixelАудио #1: 48 kHz, AC3 Dolby Digital, 3/2 (L,C,R,l,r) + LFE ch, ~384 kbps avg (RUS)Аудио #2: 48 kHz, AC3 Dolby Digital, 3/2 (L,C,R,l,r) + LFE ch, ~384 kbps avg (ENG)Аудио #3: 48 kHz, AC3 Dolby Digital, 3/2 (L,C,R,l,r) + LFE ch, ~384 kbps avg (UKR)отдельно на narod.ru 2,18 Gb 139 1 18 января 2016 11:17 Эта - дурацкая - любовь / Crazy, Stupid, Love. (2011) BDRip 720p .torrent   [Информация о файле (нажмите для просмотра)] Перевод: Дублированный (Лицензия, Blu-ray)Контейнер: .mkvКачество: BDRipВидео: MPEG-4 AVC, 5122 Кбит/с, 1280x532, 23.976 кадр/сАудио: Русский (AC3, 6 ch, 640 Кбит/c, 48,0 КГц), украинский (AC3, 6 ch, 384 Кбит/c, 48,0 КГц), английский (AC3, 2 ch, 192 Кбит/c, 48,0 КГц)Субтитры: Русские, украинские, английские 5,23 Gb 75 5 18 января 2016 11:17 Эта - дурацкая - любовь / Crazy, Stupid, Love. (2011) BDRip от HELLYWOOD .torrent   [Информация о файле (нажмите для просмотра)] Перевод: Профессиональный (полное дублирование)Blu-Ray CEE + Оригинальная дорожка + Украинская дорожка R5Субтитры: Русские, украинские, английские (полные, SDH) (внешние *.srt)Формат: AVIКачество: BDRip (источник: KRaLiMaRKo /BD-Remux /1080p)Видео: 720x304 (2.37:1), 23.976 fps, XviD build 64 ~1870 kbps avg, 0.36 bit/pixelАудио #1: 48 kHz, AC3 Dolby Digital, 3/2 (L,C,R,l,r) + LFE ch, 384 kbps|DUB, CEE|Аудио #2: 48 kHz, AC3 Dolby Digital, 3/2 (L,C,R,l,r) + LFE ch, 384 kbps|ENG|Аудио #2: 48 kHz, AC3 Dolby Digital, 3/2 (L,C,R,l,r) + LFE ch, 384 kbps|UKR, R5| 2,5 Gb 1 8 18 января 2016 11:17 Эта - дурацкая - любовь / Crazy, Stupid, Love (2011) BDRip 720p | Лицензия .torrent   [Информация о файле (нажмите для просмотра)] Формат: MKVКачество: BDRip 720pВидео: 8000 kb/s, 1280x534Аудио: Russian: AC3, 640 kb/s (6 ch), Ukrainian: AC3, 384 kb/s (6 ch), English: DTS, 1510 kb/s (6 ch)Субтитры: Russian, Ukrainian, EnglishMediainfoОбщее Уникальный идентификатор : 234641807759523851645212830826302859095 (0xB0865E4DF330B3A98414500F96DCE757) Полное имя : Z:BD-RIPEta-durackaja-ljubov.2011.x264.BDRip(720p).mkv Формат : Matroska Размер файла : 8,69 Гбайт Продолжительность : 1 ч. 58 м. Общий поток : 10,5 Мбит/сек Название фильма : --SCHUMAHER-- Дата кодирования : UTC 2011-11-29 21:27:27 Программа кодирования : mkvmerge v5.0.1 ('Es ist Sommer') built on Oct 9 2011 11:55:43 Библиотека кодирования : libebml v1.2.2 + libmatroska v1.3.0Видео: Идентификатор : 1 Формат : AVC Формат/Информация : Advanced Video Codec Профиль формата : [email protected] Параметр CABAC формата : Да Параметр ReFrames формата : 4 кадры Идентификатор кодека : V_MPEG4/ISO/AVC Продолжительность : 1 ч. 58 м. Битрейт : 8000 Кбит/сек Ширина : 1280 пикс. Высота : 534 пикс. Соотношение сторон : 2,35:1 Частота кадров : 23,976 кадр/сек Цветовое пространство : YUV Подвыборка цветности : 4:2:0 Битовая глубина : 8 бит Тип развёртки : Прогрессивная Бит/(Пиксели*Кадры) : 0.488 Размер потока : 6,43 Гбайт (74%) Библиотека кодирования : x264 core 116 r2057 0ba8a9c Настройки программы : cabac=1 / ref=3 / deblock=1:-3:-3 / analyse=0x3:0x113 / me=tesa / subme=7 / psy=1 / psy_rd=1.10:0.10 / mixed_ref=1 / me_range=32 / chroma_me=1 / trellis=1 / 8x8dct=1 / cqm=0 / deadzone=21,11 / fast_pskip=0 / chroma_qp_offset=-3 / threads=18 / sliced_threads=0 / nr=0 / decimate=0 / interlaced=0 / bluray_compat=0 / constrained_intra=0 / bframes=7 / b_pyramid=2 / b_adapt=1 / b_bias=0 / direct=3 / weightb=1 / open_gop=0 / weightp=2 / keyint=250 / keyint_min=23 / scenecut=40 / intra_refresh=0 / rc=2pass / mbtree=0 / bitrate=8000 / ratetol=1.0 / qcomp=0.60 / qpmin=0 / qpmax=69 / qpstep=4 / cplxblur=20.0 / qblur=0.5 / ip_ratio=1.40 / pb_ratio=1.30 / aq=1:0.60 Язык : EnglishАудио #1: Идентификатор : 2 Формат : AC-3 Формат/Информация : Audio Coding 3 Расширение режима : CM (complete main) Идентификатор кодека : A_AC3 Продолжительность : 1 ч. 58 м. Вид битрейта : Постоянный Битрейт : 640 Кбит/сек Канал(ы) : 6 канала(ов) Расположение каналов : Front: L C R, Side: L R, LFE Частота : 48,0 КГц Битовая глубина : 16 бит Метод сжатия : С потерями Размер потока : 541 Мбайт (6%) Язык : RussianАудио #2: Идентификатор : 3 Формат : AC-3 Формат/Информация : Audio Coding 3 Расширение режима : CM (complete main) Идентификатор кодека : A_AC3 Продолжительность : 1 ч. 58 м. Вид битрейта : Постоянный Битрейт : 384 Кбит/сек Канал(ы) : 6 канала(ов) Расположение каналов : Front: L C R, Side: L R, LFE Частота : 48,0 КГц Битовая глубина : 16 бит Метод сжатия : С потерями Размер потока : 324 Мбайт (4%) Язык : UkrainianАудио #3: Идентификатор : 4 Формат : DTS Формат/Информация : Digital Theater Systems Идентификатор кодека : A_DTS Продолжительность : 1 ч. 58 м. Вид битрейта : Постоянный Битрейт : 1510 Кбит/сек Канал(ы) : 6 канала(ов) Расположение каналов : Front: L C R, Side: L R, LFE Частота : 48,0 КГц Битовая глубина : 24 бит Метод сжатия : С потерями Размер потока : 1,25 Гбайт (14%) Язык : English 8,69 Gb 10 2 18 января 2016 11:17 Эта - дурацкая - любовь / Crazy, Stupid, Love (2011) HDRip-AVC от potroks | Лицензия .torrent   [Информация о файле (нажмите для просмотра)] Перевод: Профессиональный (полное дублирование)лицензияКодек: H.264Качество: HDRip-AVC [BDRip 1080p]Видео: 1088x448 (2,40:1), 23,976 кадр/сек, 1616 Кбит/сек, 0.138 bit/pixelАудио#1: AC3, 6 ch., 48 kHz, ~384.00 kbps | RUSАудио#2: AC3, 2 ch., 48 kHz, ~192.00 kbps | ENG 1,81 Gb 18 3 18 января 2016 11:17 Эта - дурацкая - любовь / Crazy, Stupid, Love (2011) Blu-Ray Remux .torrent   [Информация о файле (нажмите для просмотра)] Формат: m2tsКачество: Blu-Ray RemuxВидео: MPEG-4 AVC, 13.9 Мбит/с, 1920x1080, 23.976 кадр/сАудио: Русский (АС3, 6 ch, 640 Кбит/с), украинский (АС3, 6 ch, 384 Кбит/с), английский (DTS-HD MA, 6 ch, 3697 Кбит/с)Субтитры: Русские, украинские, английские 15,42 Gb 4 1 18 января 2016 11:17 Эта - дурацкая - любовь / Crazy, Stupid, Love (2011) BDRip 1080p | Лицензия .torrent   [Информация о файле (нажмите для просмотра)] Формат: MKVКачество: BDRip 1080pВидео: 11.0 mb/s, 1920x800Аудио: Russian: AC3, 640 kb/s (6 ch) / Ukrainian: AC3, 384 kb/s (6 ch) / English: DTS, 1510 kb/s (6 ch)Субтитры: Russian, Ukrainian, English 8,45 Gb 51 6 18 января 2016 11:17 Эта - дурацкая - любовь / Crazy, Stupid, Love (2011) DVD5 | Лицензия | Сжатый .torrent   [Информация о файле (нажмите для просмотра)] Качество: DVD5 [Исход. DVD9 R5]Видео: PAL 16x9 (720х576) VBR ~ 4118 kbps, Auto LetterboxedАудио 1: 48 kHz, Dolby AC3 5.1 384 kbps АнглийскийАудио 2: 48 kHz, Dolby AC3 5.1 384 kbps РусскийАудио 3: 48 kHz, Dolby AC3 5.1 384 kbps УкраинскийСубтитры: английский, хорватский, эстонский, латвийский, литовский, польский, русский, сербский, словенский, турецкий, украинскийПеревод: Дублированный 4,37 Gb 1 4 18 января 2016 11:17 Эта - дурацкая - любовь / Crazy, Stupid, Love (2011) DVD9 | Лицензия .torrent   [Информация о файле (нажмите для просмотра)] Формат: DVD-VideoКачество: DVD9Видео: PAL 16:9 (720x576) VBR,7384 KbpsАудио 1: English (Dolby AC3, 6 ch) 384KbpsАудио 2: Polish (Dolby AC3, 6 ch) 384KbpsАудио 3: Russian (Dolby AC3, 6 ch) 384KbpsАудио 4: Turkish (Dolby AC3, 2 ch) 192KbpsАудио 5: Ukrainian (Dolby AC3, 6 ch) 384Kbps 5,05 Gb 8 1

gig-torrent.net

Скачать фильм Эта - дурацкая

Размер: 1.37 GB | Добавлен: 5 лет 11 мес. назад | Торрент скачан:9917 раз
Реклама Дарим 3000 рублей за регистрацию, не упусти свой шанс получить шикарный бонус!!!

29-11-2011 18:30 Эта - дурацкая - любовь Скачать торрент  

Эта - дурацкая - любовь / Crazy, Stupid, Love.Год выпуска: 2011Страна: США Жанр: драма, мелодрама, комедияПродолжительность: 01:58:04Перевод: Профессиональный (полное дублирование)Тип Релиза: Лицензия

Режиссер: Гленн Фикарра, Джон Рекуа

В ролях: Стив Карелл, Райан Гослинг, Джулианна Мур, Эмма Стоун, Аналей Типтон, Йон Бобо, Джои Кинг, Мариса Томей, Бет Литлфорд, Джон Кэрролл Линч, Кевин Бейкон

Описание: У Кола Уивера, пуританских взглядов семьянина в возрасте «чуть-чуть за сорок», не жизнь, а мечта — хорошая работа, прекрасный дом, замечательные дети и брак со школьной возлюбленной. Но когда Кол узнает, что его жена Эмили изменила ему и хочет развода, его «идеальная» жизнь быстро рушится. Хуже того, говоря современным языком, Кол, который уже пару десятилетий не ходил на свидания, являет собой настоящего «лоха».

Качество: HDRipФормат: AVIВидео кодек: XviDАудио кодек: AC3Видео: XviD, 720x304, 23 fps, ~1279 Kbit/sАудио: АС3, 48000 Hz, 6 каналов, 384 kbit/s

Скачать Эта - дурацкая - любовь через торрент http://lostpic.net/images/8961d481ab9f5e8d0ddcd2a46b31efa9.jpg Скачать фильм Эта - дурацкая - любовь через торрент бесплантно в хорошем качестве Описание: У Кола Уивера, пуританских взглядов семьянина в возрасте «чуть-чуть за сорок», не жизнь, а мечта — хорошая работа, прекрасный ... 2011-11-29 18:58 10 10 8

Loading...

Loading...

Рекламный пират

30-11-2011 12:18 Эта - дурацкая - любовь Скачать торрент  

SDБлагодарствую :ad:

30-11-2011 12:27 Эта - дурацкая - любовь Скачать торрент  

зер гуд

30-11-2011 12:30 Эта - дурацкая - любовь Скачать торрент  

30-11-2011 12:48 Эта - дурацкая - любовь Скачать торрент  

с женой посмотрим, думаю ничё так

30-11-2011 12:58 Эта - дурацкая - любовь Скачать торрент  

Кто посмотрел? Как фильм?

30-11-2011 13:00 Эта - дурацкая - любовь Скачать торрент  

Фильм не плохой, смотреть можно :good:

30-11-2011 13:02 Эта - дурацкая - любовь Скачать торрент  

спасибо!!!!!!!!!!!!!!!!!

30-11-2011 13:10 Эта - дурацкая - любовь Скачать торрент  

начало норма а конец г.. фильму 6

Pекламный агент PB

30-11-2011 13:41 Эта - дурацкая - любовь Скачать торрент  

фильм веселый. нам понравился.качество отлично, звук отлично!

30-11-2011 14:24 Эта - дурацкая - любовь Скачать торрент  

фильм хороший, только на раз, я уже и забыл про что, лицуху давно посмотрел...

30-11-2011 14:59 Эта - дурацкая - любовь Скачать торрент  

30-11-2011 15:24 Эта - дурацкая - любовь Скачать торрент  

30-11-2011 16:25 Эта - дурацкая - любовь Скачать торрент  

30-11-2011 16:49 Эта - дурацкая - любовь Скачать торрент  

Будем посмотреть!

30-11-2011 17:07 Эта - дурацкая - любовь Скачать торрент  

30-11-2011 18:05 Эта - дурацкая - любовь Скачать торрент  

Pекламный агент PB

30-11-2011 21:32 Эта - дурацкая - любовь Скачать торрент  

Фильм очень классный!! качество и звук тоже!!! спасибо раздающему

30-11-2011 22:42 Эта - дурацкая - любовь Скачать торрент  

Как я не люблю Джулианну Мур.. всегда испортит фильм...

01-12-2011 07:26 Эта - дурацкая - любовь Скачать торрент  

супер , спасибо!

01-12-2011 14:16 Эта - дурацкая - любовь Скачать торрент  

Гамзат Гаджиев

01-12-2011 15:40 Эта - дурацкая - любовь Скачать торрент  

фильм великолепный всем советую посмотреть и качество на высоте.

01-12-2011 17:57 Эта - дурацкая - любовь Скачать торрент  

01-12-2011 18:08 Эта - дурацкая - любовь Скачать торрент  

01-12-2011 18:22 Эта - дурацкая - любовь Скачать торрент  

фильм хороший!

Pекламный агент PB

Дорогой пользователь! Огромная просьба, поблагодарите релизера, оцените раздачу и оставьте свои комментарий, если Вы скачали Эта - дурацкая - любовь через торрент бесплатно! Внесите свою лепту в развитие PiratBit!

Комментировать посты могут только пользователи прошедшие не сложную регистрацию

Эта - дурацкая - любовь через торрент Скачать бесплатно Эта - дурацкая - любовь Эта - дурацкая - любовь скачать торрент Эта - дурацкая - любовь смотреть онлайн Cкачать фильм Эта - дурацкая - любовь бесплатно Эта - дурацкая - любовь скачать торрент в хорошем качестве Эта - дурацкая - любовь смотреть онлайн бесплатно в хорошем качестве

Вы не можете начинать темыВы не можете отвечать на сообщенияВы не можете редактировать свои сообщенияВы не можете удалять свои сообщенияВы не можете голосовать в опросахВы не можете прикреплять файлы к сообщениямВы можете скачивать файлы

piratbit.ru

Скачать фильм Эта - дурацкая

Размер: 2.04 GB | Добавлен: 5 лет 11 мес. назад | Торрент скачан:332 раза
Реклама Дарим 3000 рублей за регистрацию, не упусти свой шанс получить шикарный бонус!!!

29-11-2011 18:31 Эта - дурацкая - любовь Скачать торрент  

Эта - дурацкая - любовь / Crazy, Stupid, Love. Год выпуска: 2011Страна: США , Carousel ProductionsЖанр: драма, мелодрама, комедияПродолжительность: 01:58:06Перевод: Профессиональный (полное дублирование) [Лицензия]

Режиссер: Гленн Фикарра, Джон РекуаПродюссер: Стив Карелл, Денис Ди Нови, Эрин БраунСценарий: Дэн Фогельман

Бюджет: $50 000 000Премьера в мире: 28 июля 2011

детям до 13 лет просмотр не желателенМировой рейтинг IMDB 7.60 (50 759)

В ролях: Стив Карелл, Райан Гослинг, Джулианна Мур, Эмма Стоун, Аналей Типтон, Йон Бобо, Джои Кинг, Мариса Томей, Бет Литлфорд, Джон Кэрролл Линч, Всеволод Кузнецов, Александр Коврижных, Елена Соловьева, Татьяна Шитова, Лина Иванова

Описание: У Кола Уивера, пуританских взглядов семьянина в возрасте «чуть-чуть за сорок», не жизнь, а мечта — хорошая работа, прекрасный дом, замечательные дети и брак со школьной возлюбленной. Но когда Кол узнает, что его жена Эмили изменила ему и хочет развода, его «идеальная» жизнь быстро рушится. Хуже того, говоря современным языком, Кол, который уже пару десятилетий не ходил на свидания, являет собой настоящего «лоха».И вот, проводя все свое свободное время в баре в дурном расположении духа, несчастный Кол становится протеже обаятельного («чуть-чуть за тридцать») игрока Джейкоба Палмера. Пытаясь помочь Колу забыть жену и начать собственную жизнь, Джейкоб открывает ему глаза на многочисленные возможности, открывающиеся перед ним: кокетливые женщины, крепкие напитки и чувство стиля, которое нельзя найти в дешевой парикмахерской или магазине распродаж.Кол и Эмили — не единственные, кто ищут любовь, причем, возможно, совершенно не там, где нужно: тринадцатилетний Робби, сын Кола, сходит с ума по своей семнадцатилетней няне Джессике, а та скрывает свою влюбленность в его отца. И несмотря на новый облик и новые завоевания на любовном фронте, единственное, что Кол не может «переупрямить», — это собственное сердце, которое ведет его туда, с чего все когда-то начиналось.

Качество: HDRipФормат: AVIВидео кодек: XviDАудио кодек: AC3Видео: 720x304 (2.37:1), 23.976 fps, XviD build 50 ~2086 kbps avg, 0.40 bit/pixelАудио: 48 kHz, AC3 Dolby Digital, 3/2 (L,C,R,l,r) + LFE ch, ~384 kbps(6 ch) Скачать Эта - дурацкая - любовь через торрент http://i30.fastpic.ru/big/2011/1129/4e/c5e65c961e52f95d5b1dc7f25513954e.png Скачать фильм Эта - дурацкая - любовь через торрент бесплантно в хорошем качестве Описание: У Кола Уивера, пуританских взглядов семьянина в возрасте «чуть-чуть за сорок», не жизнь, а мечта — хорошая работа, прекрасный ... 2011-11-29 18:31 10 10 6

Loading...

Loading...

Последний раз редактировалось: coc900 (2011-11-30 13:54), всего редактировалось 2 раз(а)

Рекламный пират

29-11-2011 18:39 Эта - дурацкая - любовь Скачать торрент  

Спасибо за ЛИЦЕНЗИЮ скачаю и за ценим.

29-11-2011 18:50 Эта - дурацкая - любовь Скачать торрент  

Посмотрим :sun1: .

Дорогой пользователь! Огромная просьба, поблагодарите релизера, оцените раздачу и оставьте свои комментарий, если Вы скачали Эта - дурацкая - любовь через торрент бесплатно! Внесите свою лепту в развитие PiratBit!

Комментировать посты могут только пользователи прошедшие не сложную регистрацию

Эта - дурацкая - любовь через торрент Скачать бесплатно Эта - дурацкая - любовь Эта - дурацкая - любовь скачать торрент Эта - дурацкая - любовь смотреть онлайн Cкачать фильм Эта - дурацкая - любовь бесплатно Эта - дурацкая - любовь скачать торрент в хорошем качестве Эта - дурацкая - любовь смотреть онлайн бесплатно в хорошем качестве

Вы не можете начинать темыВы не можете отвечать на сообщенияВы не можете редактировать свои сообщенияВы не можете удалять свои сообщенияВы не можете голосовать в опросахВы не можете прикреплять файлы к сообщениямВы можете скачивать файлы

piratbit.ru


Смотрите также