Любовь и голуби 1984 торрент скачать


rutor.org :: Любовь и голуби (1984) BDRip-AVC от ExKinoRay ::: Скачать торрент

Информация о фильмеНазвание: Любовь и голубиГод выпуска: 1984Страна: СССРЖанр: мелодрама, комедияПродолжительность: 01:44:44Перевод: Оригинальный

Режиссер: Владимир МеньшовВ ролях: Александр Михайлов (Вася), Нина Дорошина (Надя), Людмила Гурченко (Раиса Захаровна), Сергей Юрский (Дядя Митя), Наталья Тенякова (Баба Шура), Янина Лисовская (Люда), Игорь Лях (Леня), Лада Сизоненко (Оля), Владимир Меньшов (в титрах не указан), Константин Михайлов (в титрах не указан)

Описание: Ликвидируя неисправность лебедки, Василий Кузякин получил травму и путевку на юг. Встретил роковую женщину Раису Захаровну и... вернулся Вася с курорта не к себе в деревню, а в дом Раисы Захаровны. Началась для него новая жизнь, в которой было много непонятного и интересного, но не было дома, где остались Надя, дети и голуби...

ФайлКачество: BDRip-AVC Формат: MKVВидео кодек: x264 Аудио кодек: AC3Видео: 720x406(16:9), 23,976 fps, x264 ~1546 kbps avg, 0.221 bit/pixel Аудио: 48,0 kHz, Audio Coding 3, 6 ch, ~448 kbps avg

MI

Общее Уникальный идентификатор : 202978330462480277732665210003955544638 (0x98B4345824615035981A6808F7DE723E) Полное имя : D:ВидеоЛюбовь и голуби.1984.BDRip-AVC by Vovan366(ExKinoRay).mkv Формат : Matroska Версия формата : Version 4 / Version 2 Размер файла : 1,46 Гбайт Продолжительность : 1 ч. 44 м. Общий поток : 1996 Кбит/сек Название фильма : Любовь и голуби.1984.BDRip-AVC by Vovan366(ExKinoRay) Дата кодирования : UTC 2015-07-20 15:57:26 Программа кодирования : mkvmerge v8.2.0 ('World of Adventure') 64bit Библиотека кодирования : libebml v1.3.1 + libmatroska v1.4.2 DURATION : 01:44:44.000000000 NUMBER_OF_FRAMES : 196375 NUMBER_OF_BYTES : 351904000 _STATISTICS_WRITING_APP : mkvmerge v8.2.0 ('World of Adventure') 64bit _STATISTICS_WRITING_DATE_UTC : 2015-07-20 15:57:26 _STATISTICS_TAGS : BPS DURATION NUMBER_OF_FRAMES NUMBER_OF_BYTES

Видео Идентификатор : 1 Формат : AVC Формат/Информация : Advanced Video Codec Профиль формата : [email protected] Параметр CABAC формата : Да Параметр ReFrames формата : 9 кадров Идентификатор кодека : V_MPEG4/ISO/AVC Продолжительность : 1 ч. 44 м. Битрейт : 1546 Кбит/сек Ширина : 720 пикселей Высота : 406 пикселей Соотношение сторон : 16:9 Режим частоты кадров : Постоянный Частота кадров : 23,976 кадра/сек Цветовое пространство : YUV Субдискретизация насыщенности : 4:2:0 Битовая глубина : 8 бит Тип развёртки : Прогрессивная Бит/(Пиксели*Кадры) : 0.221 Размер потока : 1,10 Гбайт (76%) Заголовок : by Vovan366(ExKinoRay) Библиотека кодирования : x264 core 130 r2273 b3065e6 Настройки программы : cabac=1 / ref=9 / deblock=1:-2:-2 / analyse=0x3:0x113 / me=umh / subme=10 / psy=1 / psy_rd=1.00:0.15 / mixed_ref=1 / me_range=32 / chroma_me=1 / trellis=2 / 8x8dct=1 / cqm=0 / deadzone=21,11 / fast_pskip=1 / chroma_qp_offset=-3 / threads=6 / lookahead_threads=1 / sliced_threads=0 / nr=0 / decimate=0 / interlaced=0 / bluray_compat=0 / constrained_intra=0 / bframes=9 / b_pyramid=2 / b_adapt=2 / b_bias=0 / direct=3 / weightb=1 / open_gop=0 / weightp=2 / keyint=240 / keyint_min=23 / scenecut=40 / intra_refresh=0 / rc=2pass / mbtree=0 / bitrate=1546 / ratetol=1.0 / qcomp=0.60 / qpmin=0 / qpmax=69 / qpstep=4 / cplxblur=20.0 / qblur=0.5 / ip_ratio=1.40 / pb_ratio=1.30 / aq=1:1.00 Default : Да Forced : Нет

Аудио Идентификатор : 2 Формат : AC-3 Формат/Информация : Audio Coding 3 Расширение режима : CM (complete main) Параметр Endianness формата : Big Идентификатор кодека : A_AC3 Продолжительность : 1 ч. 44 м. Вид битрейта : Постоянный Битрейт : 448 Кбит/сек Каналы : 6 каналов Расположение каналов : Front: L C R, Side: L R, LFE Частота : 48,0 КГц Битовая глубина : 16 бит Метод сжатия : С потерями Размер потока : 336 Мбайт (22%) Язык : Russian Default : Да Forced : Нет

Релиз от: Rip by: Vovan366

main-rutor.org

Скачать фильмы Любовь и голуби 1984 - ТОРРЕНТИНО - торрент трекер

Год выпуска: 1984

Жанр: Комедия Мелодрама

Продолжительность: 01:44:44

Качество/ Исходник: BDRip - AVC 1080i

Язык: Русский

Тэги: Полное тэгирование

Субтитры: Русские - ( "мягкие" ) отключаемые

В ролях:

Александр Михайлов — Василий Кузякин

Нина Дорошина — Надежда Кузякина

Людмила Гурченко — Раиса Захаровна

Янина Лисовская — Людка

Игорь Лях — Лёнька

Наталья Тенякова — баба Шура

Сергей Юрский — дядя Митя

Владимир Меньшов — ведущий кадрили

Описание:

«Любовь и голуби» — советская лирическая комедия, снятая на киностудии «Мосфильм» Владимиром Меньшовым по одноимённой пьесе,

написанной театральным актёром Владимиром Гуркиным в 1981 году. Василий Кузякин (Александр Михайлов), работник лесопилки лет примерно сорока, всю жизнь живёт в своей родной северной деревне на берегу реки, в живописной местности.

У него большая семья: жена Надежда (Нина Дорошина) (зачастую ласково называемая Василием «Надюхой»), трое детей — Людмила (в обиходе зачастую «Людка») лет двадцати (Янина Лисовская) ,

Леонид (в обиходе «Лёнька») лет восемнадцати (Игорь Лях) и Оля лет двенадцати (Лада Сизоненко) — «папина дочка», любимый ребёнок Василия ...

С раннего детства Василий имеет любимое увлечение — содержание голубей ... У них во дворе голубятня ... Он разговаривает с ними, кормит изо рта, прививает любовь к ним и Оле.

Надежда не в очень большом восторге от такого увлечения своего супруга — оно ежемесячно забирает из семейного бюджета определённые суммы, но, с другой стороны, она понимает, что если бы, например, он вместо голубей любил «прикладываться к бутылке», то это было бы ещё намного хуже.

Поэтому она вынуждена смириться, тем более, что мужа своего она очень любит. Лёньку скоро заберут в армию, Людмила недавно вернулась из города — там у неё не заладилась совместная жизнь с одним городским, Оля школьница. Василий имеет мечту — побывать в самом настоящем баре, как на фотографиях в глянцевых журналах.

Совсем неподалёку от Кузякиных живёт другая семья — пенсионеры баба Шура (Наталья Тенякова) и дядя Митя (Сергей Юрский).

Они тоже любят друг друга, но почти всё время баба Шура в претензиях к супругу (см. постер фильма), так как дядя Митя любит выпить и поозорничать.

Однажды Василий получает на работе производственную травму — его ударило по голове бревном.

В больнице ему выделили путёвку в специализированный санаторий на юге.

На курорте Василий знакомится с одинокой дамой «второй молодости» Раисой Захаровной (Людмила Гурченко), как оказывается, работающей с ним в одной организации, в администрации. Раиса Захаровна много читает о паранормальных явлениях, о различных сверхспособностях человека. Василию интересно всё то, о чём она ему рассказывает.

Постепенно у Василия возникает симпатия к Раисе Захаровне. На курорте он наконец посещает настоящий бар. Там они с Раисой Захаровной выпивают, много танцуют, а затем Василий изменяет с ней своей жене.

Об измене Надежда узнаёт из письма, написанного ей с курорта Василием и Раисой Захаровной вперемешку. Они пишут, что Василий по приезду с курорта остаётся в райцентре, у Раисы Захаровны. С Надеждой приключается истерика. Лёня угрожает убить отца. Оля плачет навзрыд. Кузякины потрясены известием.

Вскоре в их доме неожиданно появляется Раиса Захаровна.

Она, сначала не раскрывая себя, обращаясь к Надежде, постепенно пытается подвести её к ключевому вопросу — есть ли у них с её мужем Василием настоящая любовь, или же это просто возникшая с годами на её месте привычка друг к другу? Сначала Надежда не понимает, к чему клонит её собеседница, но когда Раиса Захаровна называет себя, Надежда приходит в ярость и нападает на неё. Той с трудом удаётся выйти из драки.

Надежда выбита из привычной колеи — она не в состоянии ничего делать по дому, почти всё время лежит на кровати и смотрит в потолок. Все вокруг — дети, баба Шура, дядя Митя пытаются переключить её на другие, более светлые мысли, но Надежда настолько сильно потрясена изменой мужа, испытывает такой сильный стресс, что ни о чём другом думать не в состоянии.

А параллельно, в это же самое время, новая жизнь Василия с городской интеллигенткой Раисой Захаровной начинает давать первые трещины — они очень разные люди.

Раиса Захаровна, например, запрещает Василию многие его любимые блюда. Она фактически держит его на своеобразной диете. Она не приемлет также ненормативной лексики Василия. То есть, хотя Раиса Захаровна и постоянно напоминает Василию, что она его любит и всё вышеперечисленное делает исключительно для его же блага, он постепенно, но неуклонно приходит к пониманию того, что совершил большую ошибку.

Однажды, после очередных небольших пререкательств с Раисой Захаровной (связанных, в данном случае, с тем, что она рассказала ему, что была у Надежды), Василий намеренно, сознательно раздувает скандал до больших размеров и, второпях собрав чемодан, громко «хлопает дверью». Он в тягостных раздумьях идёт, возвращается к себе домой, к жене, к детям.

Василий появляется во дворе своего родного деревенского дома.

Его встречают Надежда с детьми, баба Шура и дядя Митя. Надежда отпускает в сторону Василия пару колких фраз, баба Шура пристыживает Василия. Напряжение ситуации пытается разряждить дядя Митя, давая Василию по его просьбе прикурить. В ответ на колкую реплику Лёни Василий снимает ремень брюк в намерении отхлестать сына. Но Лёня берёт в руки лежащий на скамейке топор. Видя это, Василий нарочито, картинно подставляет себя под топор сына («На отца!?… Ну, руби, сынок, руби!»). Окружающие налетают на Лёню и берут его и Василия в своеобразное кольцо. Рыдающего Лёню вытесняют, отводят в дом, стараются успокоить. Василий и Надежда перебрасываются ещё несколькими репликами, и затем Василий в компании дяди Мити удаляется со двора. Дядя Митя говорит Василию: «что характерно, Лёнька не одобрил твой поступок».

Надежда недолго злится на Василия. Она просит бабу Шуру разыскать Василия и передать ему от неё добрую весточку, а по её уходу пускается в пляс.

Надежда и Василий начинают тайно от всех встречаться на пристани. Наступила осень.

Василию в его временном пристанище на пристани становится холодно. Однажды Надежда говорит Василию, что ждёт ребёнка. Вскоре Василий и Надежда осознают, что все уже давно знают об их встречах. Василий возвращается домой, его хорошо встречают.

Лёньку забирают в армию. Василий понимает, что после всего, что он устроил, он стал любить свою Надежду ещё сильнее. О фильме Интересные факты

Для того, чтобы в конце картины заснять «расцветающее дерево», был использован знаменитый фокус с тростью, из которой выскакивают цветы. На съёмки был приглашён фокусник, к дереву прикрепили десять подобных тростей, с первого же раза сработали семь из них — кадр был снят с первого дубля.

Съёмки эпизода купания Раисы Захаровны и Василия велись в ноябре в Кобулети (Аджария). Температура воды составляла 14 градусов Цельсия.

Съёмки фильма велись в Карелии, в городе Медвежьегорске, на окраине города, в доме на берегу реки Кумса.

Во время съёмок эпизода, когда Василий выпадает из дверей своего дома в море, Александр Михайлов чуть не погиб. Эпизод снимался так: актёр падал с пирса, под водой его раздевали водолазы, и он выныривал рядом с Гурченко уже в одних трусах. Первый дубль показался режиссёру медленным, решили снять второй. Во время его съёмок, под водой возникли проблемы со снятием галстука, актёр чуть не утонул, галстук пришлось разрезать. В итоге в фильм вошёл третий дубль, в котором разрезанный ранее галстук просто сшили парой стежков.

По сценарию, Надежда — женщина средних лет, а баба Шура — старуха-пенсионерка. Однако актриса Нина Дорошина, исполнительница роли Надежды, на 10 лет старше Натальи Теняковой, сыгравшей бабу Шуру. На момент съёмок Дорошиной было 50 лет, а Теняковой — только 40. Александру Михайлову, исполнителю роли Василия, тоже было 40 лет.

Исполнительница роли бабы Шуры Наталья Тенякова — жена исполнителя роли Дяди Мити Сергея Юрского.

Эдуард Успенский написал для фильма две песни. Одна из них, «Жгучее южное танго» идет по куплету за кадром в исполнении Сергея Менахина. А вторую, «Здесь не слышно тележного скрипа // И совсем не осталось коров // Наш поселок рабочего типа // Тридцать восемь крестьянских дворов // На трехсотой версте от столицы // Здесь у нас тишина и покой // У людей просветленные лица // И народ здесь открытый такой» режиссёр в фильм не включил (песню, не вошедшую в фильм, с приведенной историей рассказал Эдуард Успенский в передаче «В нашу гавань заходили корабли», эфир от 15 февраля 2009 года. Там же он и исполнил эту песню).

Технические данные

Производство: Мосфильм

Художественный фильм, цветной,

Посещаемость: 44,5 млн зрителей.

Издание на VHS: 1 VHS, издатель: «Крупный План», 1997 г.

Издание на mpeg4: 1 MPEG-диск, издатель: «Крупный План», 1997 г.

Издание на других носителях: 1 Video CD-диск, издатель: «Крупный План», 1997 г.

Издание на DVD: 1 DVD, звук 5.1, издатель: «Крупный План», 2003 г.

Издание на DVD: 1 DVD, звук 5.1, издатель: «Крупный План», 2007 г. (реставрация звука и картинки)

Издание на Blu-ray: 1 Blu-ray, звук DTS HD-MA 5.1, издатель: «Крупный План», 2010 г. (реставрация звука и картинки) Вид данного материала в iTunes Как включить субтитры - звуковые дорожки iPod Classic, Nano_Видео - настройки - вкл./выкл. альтернативное аудио

Видео - настройки - вкл./выкл. субтитры Тех. данные Формат: MP4/M4V

Видео кодек: H.264

Аудио кодек: AAC

Видео: 480x272 (16:9), 640 Kbps, 23.976 fps

Аудио: AAC LC, 160 Kbps, 2 channels

Русские субтитры (отключаемые)

www.torrentino.me

rutor.org :: Любовь и голуби (1984) DVD9

Информация о фильмеНазвание: Любовь и голубиГод выхода: 1984Жанр: мелодрама, комедияРежиссер: Владимир МеньшовВ ролях: Александр Михайлов, Нина Дорошина, Людмила Гурченко, Сергей Юрский, Наталья Тенякова, Янина Лисовская, Игорь Лях, Лада Сизоненко, Владимир Меньшов, Константин Михайлов

О фильме: Ликвидируя неисправность лебедки, Василий Кузякин получил травму и путевку на юг. Встретил роковую женщину Раису Захаровну и… вернулся Вася с курорта не к себе в деревню, а в дом Раисы Захаровны. Началась для него новая жизнь, в которой было много непонятного и интересного, но не было дома, где остались Надя, дети и голуби…

Страна: СССРСтудия: МосфильмПродолжительность: 100 мин. / 01:40Перевод: не требуетсяДополнительно: Фильм о фильме; Фильмографии

ФайлКодек: MPEG2Качество: DVD9Видео: PAL 4:3 ([email protected]) VBR 8390 Kbps, 25.000 fpsАудио 1: Dolby AC3, 6 ch, 48.0 KHz, 448 КbpsАудио 2: Dolby AC3, 2 ch, 48.0 KHz, 224 КbpsСубтитры: русские

MediaInfo

General Complete name : E:lybov i golubiVTS_01_1.VOB Format : MPEG-PS File size : 1 024 MiB Duration : 15mn 28s Overall bit rate mode : Variable Overall bit rate : 9 246 Kbps

Video ID : 224 (0xE0) Format : MPEG Video Format version : Version 2 Format profile : [email protected] Format settings, BVOP : Yes Format settings, Matrix : Custom Format settings, GOP : M=3, N=15 Format settings, picture struc : Frame Duration : 15mn 28s Bit rate mode : Variable Bit rate : 8 390 Kbps Maximum bit rate : 8 519 Kbps Width : 720 pixels Height : 576 pixels Display aspect ratio : 4:3 Frame rate : 25.000 fps Standard : PAL Color space : YUV Chroma subsampling : 4:2:0 Bit depth : 8 bits Scan type : Interlaced Scan order : Top Field First Compression mode : Lossy Bits/(Pixel*Frame) : 0.809 Time code of first frame : 00:00:00:01 Time code source : Group of pictures header Stream size : 929 MiB (91%)

Audio #1 ID : 189 (0xBD)-128 (0x80) Format : AC-3 Format/Info : Audio Coding 3 Mode extension : CM (complete main) Format settings, Endianness : Big Muxing mode : DVD-Video Duration : 15mn 27s Bit rate mode : Constant Bit rate : 448 Kbps Channel(s) : 6 channels Channel positions : Front: L C R, Side: L R, LFE Sampling rate : 48.0 KHz Bit depth : 16 bits Compression mode : Lossy Delay relative to video : 1s 141ms Stream size : 49.5 MiB (5%)

Audio #2 ID : 189 (0xBD)-129 (0x81) Format : AC-3 Format/Info : Audio Coding 3 Mode extension : CM (complete main) Format settings, Endianness : Big Muxing mode : DVD-Video Duration : 15mn 27s Bit rate mode : Constant Bit rate : 224 Kbps Channel(s) : 2 channels Channel positions : Front: L R Sampling rate : 48.0 KHz Bit depth : 16 bits Compression mode : Lossy Delay relative to video : 1s 139ms Stream size : 24.8 MiB (2%)

Text ID : 189 (0xBD)-32 (0x20) Format : RLE Format/Info : Run-length encoding Muxing mode : DVD-Video

Menu

main-rutor.org

rutor.org :: Любовь и голуби (1984) BDRip от New-Team ::: Скачать торрент

Страна: СССРСтудия: МосфильмЖанр: мелодрама, комедияГод выпуска: 1984Продолжительность: 01:44:44

Перевод: не требуетсяОригинальная аудиодорожка: русскийCубтитры: нет

Режиссер: Владимир Меньшов

В ролях: Александр Михайлов, Нина Дорошина, Людмила Гурченко, Сергей Юрский, Наталья Тенякова, Янина Лисовская, Игорь Лях, Лада Сизоненко, Владимир Меньшов...

Описание: Ликвидируя неисправность лебедки, Василий Кузякин получил травму и путевку на юг. Встретил роковую женщину Раису Захаровну и… вернулся Вася с курорта не к себе в деревню, а в дом Раисы Захаровны. Началась для него новая жизнь, в которой было много непонятного и интересного, но не было дома, где остались Надя, дети и голуби…

Качество: BDRip (Blu-ray 1080p)Формат: AVI

Видео: 720x400 (16:9), 23.976 fps, XViD ~ 2400 kbps avg, 0.384 bit/pixelАудио: 48 kHz, АС3 6 ch, 448 kbps, русский

Релиз от:

MediaInfo

Общее Полное имя : Lubov.i.golubi.1984.BDRip_[Youtracker]_by_avproh.avi Формат : AVI Формат/Информация : Audio Video Interleave Профиль формата : OpenDML Размер файла : 2,09 Гбайт Продолжительность : 1 ч. 44 м. Общий поток : 2860 Кбит/сек Программа кодирования : VirtualDubModRus 1.5.10.2 (build 2542/release) Библиотека кодирования : VirtualDubMod build 2542/release

Видео Идентификатор : 0 Формат : MPEG-4 Visual Профиль формата : Advanced [email protected] Параметр BVOP формата : 1 Параметр QPel формата : Нет Параметр GMC формата : Без точки перехода Параметр матрицы формата : Выборочная Идентификатор кодека : XVID Идентификатор кодека/Подсказка : XviD Продолжительность : 1 ч. 44 м. Битрейт : 2400 Кбит/сек Ширина : 720 пикселей Высота : 400 пикселей Соотношение сторон : 16:9 Частота кадров : 23,976 кадра/сек Цветовое пространство : YUV Субдискретизация насыщенности : 4:2:0 Битовая глубина : 8 бит Тип развёртки : Прогрессивная Метод сжатия : С потерями Бит/(Пиксели*Кадры) : 0.348 Размер потока : 1,76 Гбайт (84%) Библиотека кодирования : XviD 65

Аудио Идентификатор : 1 Формат : AC-3 Формат/Информация : Audio Coding 3 Расширение режима : CM (complete main) Параметр Endianness формата : Big Идентификатор кодека : 2000 Продолжительность : 1 ч. 44 м. Вид битрейта : Постоянный Битрейт : 448 Кбит/сек Каналы : 6 каналов Расположение каналов : Front: L C R, Side: L R, LFE Частота : 48,0 КГц Битовая глубина : 16 бит Метод сжатия : С потерями Размер потока : 336 Мбайт (16%) Выравнивание : Разделение по промежуткам Продолжительность промежутка : 42 мс. (1,00 видеокадр) Время предзагрузки промежутка : 500 мс.

main-rutor.org

rutor.org :: Любовь и голуби (1984) BDRip от New-Team ::: Скачать торрент

Страна: СССРСтудия: МосфильмЖанр: мелодрама, комедияГод выпуска: 1984Продолжительность: 01:44:44

Перевод: не требуетсяОригинальная аудиодорожка: русскийCубтитры: нет

Режиссер: Владимир Меньшов

В ролях: Александр Михайлов, Нина Дорошина, Людмила Гурченко, Сергей Юрский, Наталья Тенякова, Янина Лисовская, Игорь Лях, Лада Сизоненко, Владимир Меньшов...

Описание: Ликвидируя неисправность лебедки, Василий Кузякин получил травму и путевку на юг. Встретил роковую женщину Раису Захаровну и… вернулся Вася с курорта не к себе в деревню, а в дом Раисы Захаровны. Началась для него новая жизнь, в которой было много непонятного и интересного, но не было дома, где остались Надя, дети и голуби…

Качество: BDRip (Blu-ray 1080p)Формат: AVI

Видео: 720x400 (16:9), 23.976 fps, XViD ~ 1535 kbps avg, 0.222 bit/pixelАудио: 48 kHz, АС3 6 ch, 448 kbps, русский

Релиз от:

MediaInfo

Общее Полное имя : Lubov.i.golubi.1984.BDRip.1.46GB_[Youtracker]_by_avproh.avi Формат : AVI Формат/Информация : Audio Video Interleave Размер файла : 1,46 Гбайт Продолжительность : 1 ч. 44 м. Общий поток : 1992 Кбит/сек Программа кодирования : VirtualDubModRus 1.5.10.2 (build 2542/release) Библиотека кодирования : VirtualDubMod build 2542/release

Видео Идентификатор : 0 Формат : MPEG-4 Visual Профиль формата : Advanced [email protected] Параметр BVOP формата : 1 Параметр QPel формата : Нет Параметр GMC формата : Без точки перехода Параметр матрицы формата : Выборочная Идентификатор кодека : XVID Идентификатор кодека/Подсказка : XviD Продолжительность : 1 ч. 44 м. Битрейт : 1535 Кбит/сек Ширина : 720 пикселей Высота : 400 пикселей Соотношение сторон : 16:9 Частота кадров : 23,976 кадра/сек Цветовое пространство : YUV Субдискретизация насыщенности : 4:2:0 Битовая глубина : 8 бит Тип развёртки : Прогрессивная Метод сжатия : С потерями Бит/(Пиксели*Кадры) : 0.222 Размер потока : 1,12 Гбайт (77%) Библиотека кодирования : XviD 65

Аудио Идентификатор : 1 Формат : AC-3 Формат/Информация : Audio Coding 3 Расширение режима : CM (complete main) Параметр Endianness формата : Big Идентификатор кодека : 2000 Продолжительность : 1 ч. 44 м. Вид битрейта : Постоянный Битрейт : 448 Кбит/сек Каналы : 6 каналов Расположение каналов : Front: L C R, Side: L R, LFE Частота : 48,0 КГц Битовая глубина : 16 бит Метод сжатия : С потерями Размер потока : 336 Мбайт (22%) Выравнивание : Разделение по промежуткам Продолжительность промежутка : 42 мс. (1,00 видеокадр) Время предзагрузки промежутка : 500 мс.

Сравнение с релизом HQ-VIDEO:

http://new-rutor.org/torrent/129009/

Видео: http://screenshotcomparison.com/comparison/31385 - на первой паре скринов у конкурента виден известный артефакт кодера XViD. Остальное видите сами. Аудио: http://screenshotcomparison.com/comparison/31341 - звук у конкурента пережат до 384 кбпс, ну и в его теме насторожила фраза:

ЦитатаКто-то писал:Звуковая дорожка, подогнана без рассинхрона, благодоря совместными усилиями X-Kira и yangus Зачем и куда нужно было подгонять звук, когда на том же Руторе более полугода назад поставлен был блюр с оригинальным звуком 448 кбпс - http://new-rutor.org/torrent/83628/, не требующим никакой подгонки.

main-rutor.org

rutor.org :: Любовь и голуби (1984) BDRip от New-Team ::: Скачать торрент

Страна: СССРСтудия: МосфильмЖанр: мелодрама, комедияГод выпуска: 1984Продолжительность: 01:44:44

Перевод: не требуетсяОригинальная аудиодорожка: русскийCубтитры: нет

Режиссер: Владимир Меньшов

В ролях: Александр Михайлов, Нина Дорошина, Людмила Гурченко, Сергей Юрский, Наталья Тенякова, Янина Лисовская, Игорь Лях, Лада Сизоненко, Владимир Меньшов...

Описание: Ликвидируя неисправность лебедки, Василий Кузякин получил травму и путевку на юг. Встретил роковую женщину Раису Захаровну и… вернулся Вася с курорта не к себе в деревню, а в дом Раисы Захаровны. Началась для него новая жизнь, в которой было много непонятного и интересного, но не было дома, где остались Надя, дети и голуби…

Качество: BDRip (Blu-ray 1080p)Формат: AVI

Видео: 656x368 (16:9), 23.976 fps, XViD ~ 857 kbps avg, 0.148 bit/pixelАудио: 48 kHz, МР3 2 ch, 128 kbps, русский

Релиз от:

MediaInfo

Общее Полное имя : Lubov.i.golubi.1984.BDRip.745MB_[Youtracker]_by_avproh.avi Формат : AVI Формат/Информация : Audio Video Interleave Размер файла : 745 Мбайт Продолжительность : 1 ч. 44 м. Общий поток : 994 Кбит/сек Программа кодирования : VirtualDubModRus 1.5.10.2 (build 2542/release) Библиотека кодирования : VirtualDubMod build 2542/release

Видео Идентификатор : 0 Формат : MPEG-4 Visual Профиль формата : Advanced [email protected] Параметр BVOP формата : 1 Параметр QPel формата : Нет Параметр GMC формата : Без точки перехода Параметр матрицы формата : Выборочная Идентификатор кодека : XVID Идентификатор кодека/Подсказка : XviD Продолжительность : 1 ч. 44 м. Битрейт : 857 Кбит/сек Ширина : 656 пикселей Высота : 368 пикселей Соотношение сторон : 16:9 Частота кадров : 23,976 кадра/сек Цветовое пространство : YUV Субдискретизация насыщенности : 4:2:0 Битовая глубина : 8 бит Тип развёртки : Прогрессивная Метод сжатия : С потерями Бит/(Пиксели*Кадры) : 0.148 Размер потока : 642 Мбайт (86%) Библиотека кодирования : XviD 65

Аудио Идентификатор : 1 Формат : MPEG Audio Версия формата : Version 1 Профиль формата : Layer 3 Режим : Joint stereo Расширение режима : MS Stereo Идентификатор кодека : 55 Идентификатор кодека/Подсказка : MP3 Продолжительность : 1 ч. 44 м. Вид битрейта : Постоянный Битрейт : 128 Кбит/сек Каналы : 2 канала Частота : 48,0 КГц Метод сжатия : С потерями Размер потока : 95,9 Мбайт (13%) Выравнивание : Соединение по промежуткам Продолжительность промежутка : 42 мс. (1,00 видеокадр) Время предзагрузки промежутка : 504 мс.

main-rutor.org


Смотрите также