Любовь и прочие неприятности скачать через торрент


Обсуждение Фильмов - Любовь и прочие неприятности

Фильмы: Любовь и прочие неприятности / Failure to Launch (2006) Подробнее

Трип – инфантильный нахлебник и лентяй. Ему уже за тридцать, а он предпочитает жить с родителями и ни о чем не думать. Однажды Трип заявляет, что съедет из отчего дома в день, когда встретит девушку своей мечты. Уставшие от великовозрастного лоботряса, родители Трипа подкидывают ему девчонку, которая должна избавить их от дармоеда. Но в один момент все идет не так, как нужно...

jaguar14 10

Возраст:7 не указан

Сообщений: 29

большая просьба к автору! закиньте пожалуйста етот фильм в размере 1.4 гб если можно. просто говорят оч класный фильм. очень хочу посмотреть. заранее спасибо)

Админ 11 17

Возраст:8 не указан

Сообщений: 4630

Есть только это.

Множество вопросов таких как: проблемы со скачиванием торрент файла; нет звука или изображения; фильм скачался на английском; что значит CamRip, Telesync, DVDRip; и многое другое - смотрим здесь !!! F.A.Q. !!! Задаем вопросы на форуме! Личные сообщения - для личных вопросов! smalpeeg 24

Возраст:28 Женский

Сообщений: 80

Ничего такой фильм)

niammiam

Возраст:215 не указан

Сообщений: 87

Пять c ++++

shinka 52

Возраст:2016 не указан

Сообщений: 43

спасибо! фильм очень понравился!

-Dimon- 39

Возраст:30 Мужской

Сообщений: 627

верю что фильм хороший, посмотрел бы его полностью если б не лошадиная морда Сары Джессики Паркер:beeee2: а так меня хватило только на 15 минут этого ужаса:beeee1:

shkodyafka

Возраст:33 Женский

Сообщений: 406 21 Апрель 2010 20:28

1,5 Гб написано "Полное дублирование", но там двуголосый закадровый перевод...

Lulu 103

Возраст:7 Женский

Сообщений: 95661

я всегда буду

21 Апрель 2010 20:32

Спасибо,исправили.

Пы.Сы.и не надо делать мне комплиментов и ласково называть,от них мой котик превращается в тигра.

Antonina

Возраст:38 Женский

Сообщений: 98 24 Апрель 2010 00:01

Один раз посмотреть можно, иногда даже смешно. Есть красивые виды природы. Такая проблема на самом деле существует - повзрослевшие мальчики не хотят съезжать от родителей. Не понравилась концовка - что это за реалити-шоу?

Kapaev

Возраст:4 не указан

Сообщений: 17 27 Апрель 2010 22:10

Отличная комедия! Несмотря на то, что с самого начала понятно чем все закончится, смотреть интересно благодаря хорошему и неординарному юмору! Рекомендуем!!!

trivimage

Возраст:57 Мужской

Сообщений: 5 29 Апрель 2010 11:22 На комедию особо не тянет, но кое-где можно улыбнуться

traveller

29 Апрель 2010 20:36

Спасибо за лёгкий приятный фильм...

ПапинаДочка

nata2832

Возраст:43 Женский

Сообщений: 376

Далеко не всегда отрицательный отзыв говорит об отсутствии ума у написавшего. Не забывайте, о вкусах не спорят.

Простоват. Раз посмотреть, удалить и забыть.

Я слишком стар, чтоб тешиться игрою И слишком юн, чтоб без желаний быть. (Гёте "Фауст")

starivy

Karma:+5 / -0

[+] [-]

Возраст:3 Женский

Сообщений: 12 неплохой фильм....легкий, интересный...вообщем обычная мелодрама-комедия SabRiNa

Возраст:29 Женский

Сообщений: 102 После просмотра осталось двоякое чувство: вроде и фильм не скажешь, что плохой, но и советовать никому желания нет. Tisha 14

Возраст:25 Женский

Сообщений: 12 Хороший фильм!!! Очень хочется дублированный!!!!!!!!! Temptation 28

Возраст:24 Женский

Сообщений: 247

Неплохой фильм))

xas36

Возраст:7 не указан

Сообщений: 1749

жене понравился, я такое не смотрю...

KD

Возраст:6 Женский

Сообщений: 42

О, стареющая Сара Дж. Паркер и Мэтью Макконахи играют тридцатилетнюю парочку пытающуюся доказать нам, что они друг в друга влюбились… Романтики в фильме не наблюдается, смешных сцен – тоже. Заснула на половине фильма. Попробовала досмотреть второй раз. Почти заснула тоже ) Аналоги: Супруги Морган в бегах, Охотники за головами.

Sauron

Возраст:47 Мужской

Сообщений: 365 Смотреть можно, но слишком предсказуемо, и главная героиня канешна страшна 4 ЮрOk

Возраст:36 Мужской

Сообщений: 238 Фильм на один раз. Осилил в два присеста. Эмоций ни положительных, ни отрицательных.

Одноразовый..использовали и выкинули... Макконахи очаровашка))

teembaland

Karma:+1 / -2

[+] [-]

Возраст:Не указан не указан

Сообщений: 2 Качайте, если хотите посмотреть, как "малыш" Мэтью Мак. балдеет от себя любимого. Как мумия Сара эксплуатирует свою главную фишку - свинячий визг ( очень странно, кстати, слышать детские повизгивания от сорокалетней усушенной тетки!). Как все заезженные "штампы" американских фильмов, которые не смотрят даже в Америке, собраны в одно большое гов..о!)) И, если потратите время на просмотр, то убейтесь об стенку и не говорите, что вас не предупреждали!!! AliA 74

Возраст:30 Женский

Сообщений: 220

На свете много чужих нервов. Ни к чему трепать свои...))

teembaland пишет:

Качайте, если хотите посмотреть, как "малыш" Мэтью Мак. балдеет от себя любимого. Как мумия Сара эксплуатирует свою главную фишку - свинячий визг ( очень странно, кстати, слышать детские повизгивания от сорокалетней усушенной тетки!). Как все заезженные "штампы" американских фильмов, которые не смотрят даже в Америке, собраны в одно большое гов..о!)) И, если потратите время на просмотр, то убейтесь об стенку и не говорите, что вас не предупреждали!!! С первой частью согласна до слова "гов..о!" Мне фильм понравился, но Сара, да, со своими "ужимками" тож понравилась. Смешной, немного глупый и очень позитивный(оч.понра песня "Eels - Fresh feeling"). PS Раньше Америк.фильмы не понимала, а потом перестала заморачиваться(типа америкосы наснимали.. и т.д.), и теперь получаю удовольствие от просмотра комедий(не всех ,конечно, но большинства) и Англия (снимает тож прилично, хоть и хмуро иногда) Dauphine

Возраст:26 Женский

Сообщений: 20

даа,как-то не очень они вместе смотрятся. вот на Кейт Хадсон рядом с Мэттью МакКонахи и смотреть приятно. А Паркер для меня так и останется героиней "секса в большом городе". не буду качать даже

.:Foxxy:. 6 107

Возраст:28 Женский

Сообщений: 3489

Прикольная лёгкая смешная комедия,мне всё понравилось. И животные очаровательные..

Скрытый текст

Lora♥♥♥

Возраст:12 Женский

Сообщений: 70

Кошка Шредингера пишет:

Одноразовый..использовали и выкинули... Макконахи очаровашка)) Абсолютно согласна. Dark__Lady 242

Возраст:20 Женский

Сообщений: 1751

фильм хорош,легкий.

Все брошу и стану хорошей : D

Рысик 2 223

Возраст:26 Женский

Сообщений: 709

Фильм легкий и хороший, но Паркер немного напрягала, пожилая героиня "Секса в большом городе" не воспринимаетчся мной в столь целомудренном образе...

Вы не можете оставлять больше 10 комментариев в сутки!

www.fast-torrent.ru

Любовь и прочие неприятности через торрент

ОбщееУникальный идентификатор : 221473210892938938393333458657831553807 (0xA69E305A090B1CC6973E430A68180B0F)Полное имя : D:\Video\Любовь и прочие неприятности.2006.BDRip.720p.mkvФормат : MatroskaВерсия формата : Version 4 / Version 2Размер файла : 4,13 ГбайтПродолжительность : 1 ч. 36 м.Общий поток : 6137 Кбит/секДата кодирования : UTC 2016-03-29 12:56:17Программа кодирования : mkvmerge v8.2.0 ('World of Adventure') 64bitБиблиотека кодирования : libebml v1.3.1 + libmatroska v1.4.2

ВидеоИдентификатор : 1Формат : AVCФормат/Информация : Advanced Video CodecПрофиль формата : [email protected]Параметр CABAC формата : ДаПараметр ReFrames формата : 9 кадровИдентификатор кодека : V_MPEG4/ISO/AVCПродолжительность : 1 ч. 36 м.Битрейт : 4023 Кбит/секШирина : 1280 пикселейВысота : 546 пикселейСоотношение сторон : 2,35:1Режим частоты кадров : ПостоянныйЧастота кадров : 23,976 (24000/1001) кадра/секЦветовое пространство : YUVСубдискретизация насыщенности : 4:2:0Битовая глубина : 8 битТип развёртки : ПрогрессивнаяБит/(Пиксели*Кадры) : 0.240Размер потока : 2,71 Гбайт (66%)Библиотека кодирования : x264 core 146 r2538 121396cНастройки программы : cabac=1 / ref=9 / deblock=1:-3:-3 / analyse=0x3:0x113 / me=umh / subme=10 / psy=1 / psy_rd=1.00:0.15 / mixed_ref=1 / me_range=32 / chroma_me=1 / trellis=2 / 8x8dct=1 / cqm=0 / deadzone=21,11 / fast_pskip=0 / chroma_qp_offset=-3 / threads=6 / lookahead_threads=1 / sliced_threads=0 / nr=0 / decimate=0 / interlaced=0 / bluray_compat=0 / constrained_intra=0 / bframes=10 / b_pyramid=2 / b_adapt=2 / b_bias=0 / direct=1 / weightb=1 / open_gop=0 / weightp=2 / keyint=230 / keyint_min=23 / scenecut=40 / intra_refresh=0 / rc_lookahead=40 / rc=crf / mbtree=1 / crf=19.4 / qcomp=0.60 / qpmin=0 / qpmax=69 / qpstep=4 / vbv_maxrate=40000 / vbv_bufsize=50000 / crf_max=0.0 / nal_hrd=none / filler=0 / ip_ratio=1.40 / aq=1:1.00Язык : EnglishDefault : ДаForced : Нет

Аудио #1Идентификатор : 2Формат : AC-3Формат/Информация : Audio Coding 3Расширение режима : CM (complete main)Параметр Endianness формата : BigИдентификатор кодека : A_AC3Продолжительность : 1 ч. 36 м.Вид битрейта : ПостоянныйБитрейт : 384 Кбит/секКаналы : 6 каналовРасположение каналов : Front: L C R, Side: L R, LFEЧастота : 48,0 КГцЧастота кадров : 31,250 кадров/сек (1536 spf)Метод сжатия : С потерямиРазмер потока : 264 Мбайт (6%)Заголовок : DUB (R5)Язык : RussianDefault : ДаForced : Нет

Аудио #2Идентификатор : 3Формат : AC-3Формат/Информация : Audio Coding 3Расширение режима : CM (complete main)Параметр Endianness формата : BigИдентификатор кодека : A_AC3Продолжительность : 1 ч. 36 м.Вид битрейта : ПостоянныйБитрейт : 640 Кбит/секКаналы : 6 каналовРасположение каналов : Front: L C R, Side: L R, LFEЧастота : 48,0 КГцЧастота кадров : 31,250 кадров/сек (1536 spf)Метод сжатия : С потерямиРазмер потока : 441 Мбайт (10%)Заголовок : MVOЯзык : RussianDefault : НетForced : Нет

Аудио #3Идентификатор : 4Формат : AC-3Формат/Информация : Audio Coding 3Расширение режима : CM (complete main)Параметр Endianness формата : BigИдентификатор кодека : A_AC3Продолжительность : 1 ч. 36 м.Вид битрейта : ПостоянныйБитрейт : 192 Кбит/секКаналы : 2 каналаРасположение каналов : Front: L RЧастота : 48,0 КГцЧастота кадров : 31,250 кадров/сек (1536 spf)Метод сжатия : С потерямиРазмер потока : 132 Мбайт (3%)Заголовок : DVO (CTC)Язык : RussianDefault : НетForced : Нет

Аудио #4Идентификатор : 5Формат : AC-3Формат/Информация : Audio Coding 3Расширение режима : CM (complete main)Параметр Endianness формата : BigИдентификатор кодека : A_AC3Продолжительность : 1 ч. 36 м.Вид битрейта : ПостоянныйБитрейт : 448 Кбит/секКаналы : 6 каналовРасположение каналов : Front: L C R, Side: L R, LFEЧастота : 48,0 КГцЧастота кадров : 31,250 кадров/сек (1536 spf)Метод сжатия : С потерямиРазмер потока : 309 Мбайт (7%)Заголовок : AVO (Юрий Немахов)Язык : RussianDefault : НетForced : Нет

Аудио #5Идентификатор : 6Формат : AC-3Формат/Информация : Audio Coding 3Расширение режима : CM (complete main)Параметр Endianness формата : BigИдентификатор кодека : A_AC3Продолжительность : 1 ч. 36 м.Вид битрейта : ПостоянныйБитрейт : 448 Кбит/секКаналы : 6 каналовРасположение каналов : Front: L C R, Side: L R, LFEЧастота : 48,0 КГцЧастота кадров : 31,250 кадров/сек (1536 spf)Метод сжатия : С потерямиРазмер потока : 309 Мбайт (7%)Заголовок : OriginalЯзык : EnglishDefault : НетForced : Нет

ТекстИдентификатор : 7Формат : UTF-8Идентификатор кодека : S_TEXT/UTF8Идентификатор кодека/Информация : UTF-8 Plain TextПродолжительность : 1 ч. 31 м.Битрейт : 79 бит/секCount of elements : 1703Размер потока : 53,2 Кбайт (0%)Заголовок : английскийЯзык : EnglishDefault : НетForced : Нет

piratbit.ru

Любовь и прочие неприятности через торрент

ОбщееУникальный идентификатор : 246663734157058956481768452881199098448 (0xB991B509CC1D33FF956F276614E36A50)Полное имя : D:\Video\Любовь и прочие неприятности.2006.BDRip.1080p.mkvФормат : MatroskaВерсия формата : Version 4 / Version 2Размер файла : 10,7 ГбайтПродолжительность : 1 ч. 36 м.Общий поток : 15,9 Мбит/секДата кодирования : UTC 2016-03-31 03:12:17Программа кодирования : mkvmerge v8.2.0 ('World of Adventure') 64bitБиблиотека кодирования : libebml v1.3.1 + libmatroska v1.4.2

ВидеоИдентификатор : 1Формат : AVCФормат/Информация : Advanced Video CodecПрофиль формата : [email protected]Параметр CABAC формата : ДаПараметр ReFrames формата : 4 кадраИдентификатор кодека : V_MPEG4/ISO/AVCПродолжительность : 1 ч. 36 м.Битрейт : 12,8 Мбит/секШирина : 1920 пикселейВысота : 818 пикселейСоотношение сторон : 2,35:1Режим частоты кадров : ПостоянныйЧастота кадров : 23,976 (24000/1001) кадра/секЦветовое пространство : YUVСубдискретизация насыщенности : 4:2:0Битовая глубина : 8 битТип развёртки : ПрогрессивнаяБит/(Пиксели*Кадры) : 0.339Размер потока : 8,58 Гбайт (80%)Библиотека кодирования : x264 core 146 r2538 121396cНастройки программы : cabac=1 / ref=4 / deblock=1:-3:-3 / analyse=0x3:0x113 / me=umh / subme=10 / psy=1 / psy_rd=1.00:0.15 / mixed_ref=1 / me_range=32 / chroma_me=1 / trellis=2 / 8x8dct=1 / cqm=0 / deadzone=21,11 / fast_pskip=1 / chroma_qp_offset=-3 / threads=6 / lookahead_threads=1 / sliced_threads=0 / nr=0 / decimate=1 / interlaced=0 / bluray_compat=0 / constrained_intra=0 / bframes=10 / b_pyramid=2 / b_adapt=2 / b_bias=0 / direct=1 / weightb=1 / open_gop=0 / weightp=2 / keyint=230 / keyint_min=23 / scenecut=40 / intra_refresh=0 / rc_lookahead=40 / rc=crf / mbtree=0 / crf=19.3 / qcomp=0.60 / qpmin=0 / qpmax=69 / qpstep=4 / vbv_maxrate=40000 / vbv_bufsize=50000 / crf_max=0.0 / nal_hrd=none / filler=0 / ip_ratio=1.40 / pb_ratio=1.30 / aq=1:1.00Язык : EnglishDefault : ДаForced : Нет

Аудио #1Идентификатор : 2Формат : AC-3Формат/Информация : Audio Coding 3Расширение режима : CM (complete main)Параметр Endianness формата : BigИдентификатор кодека : A_AC3Продолжительность : 1 ч. 36 м.Вид битрейта : ПостоянныйБитрейт : 384 Кбит/секКаналы : 6 каналовРасположение каналов : Front: L C R, Side: L R, LFEЧастота : 48,0 КГцЧастота кадров : 31,250 кадров/сек (1536 spf)Метод сжатия : С потерямиРазмер потока : 264 Мбайт (2%)Заголовок : DUB (R5)Язык : RussianDefault : ДаForced : Нет

Аудио #2Идентификатор : 3Формат : AC-3Формат/Информация : Audio Coding 3Расширение режима : CM (complete main)Параметр Endianness формата : BigИдентификатор кодека : A_AC3Продолжительность : 1 ч. 36 м.Вид битрейта : ПостоянныйБитрейт : 640 Кбит/секКаналы : 6 каналовРасположение каналов : Front: L C R, Side: L R, LFEЧастота : 48,0 КГцЧастота кадров : 31,250 кадров/сек (1536 spf)Метод сжатия : С потерямиРазмер потока : 441 Мбайт (4%)Заголовок : MVOЯзык : RussianDefault : НетForced : Нет

Аудио #3Идентификатор : 4Формат : AC-3Формат/Информация : Audio Coding 3Расширение режима : CM (complete main)Параметр Endianness формата : BigИдентификатор кодека : A_AC3Продолжительность : 1 ч. 36 м.Вид битрейта : ПостоянныйБитрейт : 192 Кбит/секКаналы : 2 каналаРасположение каналов : Front: L RЧастота : 48,0 КГцЧастота кадров : 31,250 кадров/сек (1536 spf)Метод сжатия : С потерямиРазмер потока : 132 Мбайт (1%)Заголовок : DVO (CTC)Язык : RussianDefault : НетForced : Нет

Аудио #4Идентификатор : 5Формат : AC-3Формат/Информация : Audio Coding 3Расширение режима : CM (complete main)Параметр Endianness формата : BigИдентификатор кодека : A_AC3Продолжительность : 1 ч. 36 м.Вид битрейта : ПостоянныйБитрейт : 448 Кбит/секКаналы : 6 каналовРасположение каналов : Front: L C R, Side: L R, LFEЧастота : 48,0 КГцЧастота кадров : 31,250 кадров/сек (1536 spf)Метод сжатия : С потерямиРазмер потока : 309 Мбайт (3%)Заголовок : AVO (Юрий Немахов)Язык : RussianDefault : НетForced : Нет

Аудио #5Идентификатор : 6Формат : DTSФормат/Информация : Digital Theater SystemsРежим : 16Параметр Endianness формата : BigИдентификатор кодека : A_DTSПродолжительность : 1 ч. 36 м.Вид битрейта : ПостоянныйБитрейт : 1509 Кбит/секКаналы : 6 каналовРасположение каналов : Front: L C R, Side: L R, LFEЧастота : 48,0 КГцЧастота кадров : 93,750 кадра/сек (512 spf)Битовая глубина : 24 битМетод сжатия : С потерямиРазмер потока : 1,02 Гбайт (9%)Заголовок : OriginalЯзык : EnglishDefault : НетForced : Нет

ТекстИдентификатор : 7Формат : UTF-8Идентификатор кодека : S_TEXT/UTF8Идентификатор кодека/Информация : UTF-8 Plain TextПродолжительность : 1 ч. 31 м.Битрейт : 79 бит/секCount of elements : 1703Размер потока : 53,2 Кбайт (0%)Заголовок : английскийЯзык : EnglishDefault : НетForced : Нет

piratbit.ru

Любовь и прочие неприятности через торрент

Format                                   : MatroskaFormat version                           : Version 2File size                                : 7.01 GiBDuration                                 : 1h 36mnOverall bit rate                         : 10.4 MbpsMovie name                               : Ljubov' i prochie neprijatnosti.(2006).BDRip.720p.[denis100]Encoded date                             : UTC 2016-03-29 12:40:44Writing application                      : mkvmerge v5.8.0 ('No Sleep / Pillow') built on Sep  2 2012 15:37:04Writing library                          : libebml v1.2.3 + libmatroska v1.3.0

VideoID                                       : 1Format                                   : AVCFormat/Info                              : Advanced Video CodecFormat profile                           : [email protected] settings, CABAC                   : YesFormat settings, ReFrames                : 11 framesCodec ID                                 : V_MPEG4/ISO/AVCDuration                                 : 1h 36mnBit rate                                 : 7 910 KbpsWidth                                    : 1 280 pixelsHeight                                   : 546 pixelsDisplay aspect ratio                     : 2.35:1Frame rate                               : 23.976 fpsColor space                              : YUVChroma subsampling                       : 4:2:0Bit depth                                : 8 bitsScan type                                : ProgressiveBits/(Pixel*Frame)                       : 0.472Stream size                              : 5.32 GiB (76%)Title                                    : Ljubov' i prochie neprijatnosti.(2006).BDRip.720p.[denis100]Writing library                          : x264 core 148 r2665 a01e339Encoding settings                        : cabac=1 / ref=11 / deblock=1:-3:-3 / analyse=0x3:0x133 / me=umh / subme=11 / psy=1 / psy_rd=1.00:0.10 / mixed_ref=1 / me_range=48 / chroma_me=1 / trellis=2 / 8x8dct=1 / cqm=0 / deadzone=21,11 / fast_pskip=0 / chroma_qp_offset=-3 / threads=6 / lookahead_threads=1 / sliced_threads=0 / nr=0 / decimate=1 / interlaced=0 / bluray_compat=0 / constrained_intra=0 / bframes=12 / b_pyramid=2 / b_adapt=2 / b_bias=0 / direct=3 / weightb=1 / open_gop=0 / weightp=2 / keyint=240 / keyint_min=23 / scenecut=40 / intra_refresh=0 / rc=crf / mbtree=0 / crf=16.9 / qcomp=0.60 / qpmin=0 / qpmax=69 / qpstep=4 / ip_ratio=1.40 / pb_ratio=1.30 / aq=2:0.90Language                                 : EnglishDefault                                  : YesForced                                   : No

Audio #1ID                                       : 2Format                                   : AC-3Format/Info                              : Audio Coding 3Mode extension                           : CM (complete main)Codec ID                                 : A_AC3Duration                                 : 1h 36mnBit rate mode                            : ConstantBit rate                                 : 384 KbpsChannel(s)                               : 6 channelsChannel positions                        : Front: L C R, Side: L R, LFESampling rate                            : 48.0 KHzBit depth                                : 16 bitsCompression mode                         : LossyStream size                              : 265 MiB (4%)Title                                    : ДубляжLanguage                                 : RussianDefault                                  : YesForced                                   : No

Audio #2ID                                       : 3Format                                   : AC-3Format/Info                              : Audio Coding 3Mode extension                           : CM (complete main)Codec ID                                 : A_AC3Duration                                 : 1h 36mnBit rate mode                            : ConstantBit rate                                 : 640 KbpsChannel(s)                               : 6 channelsChannel positions                        : Front: L C R, Side: L R, LFESampling rate                            : 48.0 KHzBit depth                                : 16 bitsCompression mode                         : LossyStream size                              : 441 MiB (6%)Title                                    : MVOLanguage                                 : RussianDefault                                  : NoForced                                   : No

Audio #3ID                                       : 4Format                                   : AC-3Format/Info                              : Audio Coding 3Mode extension                           : CM (complete main)Codec ID                                 : A_AC3Duration                                 : 1h 36mnBit rate mode                            : ConstantBit rate                                 : 192 KbpsChannel(s)                               : 2 channelsChannel positions                        : Front: L RSampling rate                            : 48.0 KHzBit depth                                : 16 bitsCompression mode                         : LossyStream size                              : 132 MiB (2%)Title                                    : DVO, СТСLanguage                                 : RussianDefault                                  : NoForced                                   : No

Audio #4ID                                       : 5Format                                   : AC-3Format/Info                              : Audio Coding 3Mode extension                           : CM (complete main)Codec ID                                 : A_AC3Duration                                 : 1h 36mnBit rate mode                            : ConstantBit rate                                 : 448 KbpsChannel(s)                               : 6 channelsChannel positions                        : Front: L C R, Side: L R, LFESampling rate                            : 48.0 KHzBit depth                                : 16 bitsCompression mode                         : LossyStream size                              : 309 MiB (4%)Title                                    : AVO, НемаховLanguage                                 : RussianDefault                                  : NoForced                                   : No

Audio #5ID                                       : 6Format                                   : AC-3Format/Info                              : Audio Coding 3Mode extension                           : CM (complete main)Codec ID                                 : A_AC3Duration                                 : 1h 36mnBit rate mode                            : ConstantBit rate                                 : 640 KbpsChannel(s)                               : 6 channelsChannel positions                        : Front: L C R, Side: L R, LFESampling rate                            : 48.0 KHzBit depth                                : 16 bitsCompression mode                         : LossyStream size                              : 441 MiB (6%)Language                                 : EnglishDefault                                  : NoForced                                   : No

TextID                                       : 7Format                                   : UTF-8Codec ID                                 : S_TEXT/UTF8Codec ID/Info                            : UTF-8 Plain TextLanguage                                 : EnglishDefault                                  : NoForced                                   : No

Menu00:00:00.000                             : en:00:00:00.00000:07:20.273                             : en:00:07:20.27300:14:26.866                             : en:00:14:26.86600:20:19.093                             : en:00:20:19.09300:26:22.581                             : en:00:26:22.58100:35:20.910                             : en:00:35:20.91000:43:00.411                             : en:00:43:00.41100:51:28.335                             : en:00:51:28.33500:59:26.104                             : en:00:59:26.10401:07:56.739                             : en:01:07:56.73901:17:31.772                             : en:01:17:31.77201:22:37.703                             : en:01:22:37.70301:28:14.289                             : en:01:28:14.289

piratbit.ru

Любовь и прочие неприятности скачать через торрент » Торрент Кино

Это можно было ещё назвать «Пола: Секретный материальчик», что тоже было бы «в точку». Картина нью-гемпширского режиссёра Тома Дея «Неудачный запуск», или, по обыкновению переименованная у нас (но это более выигрышный маркетинговый ход) с барского плеча в «Любовь и прочие неприятности» является по сути своей - ромкомом. Причём, несколько досадно, но здесь больше «рома», чем «кома». Но ситуация, в которую поставили героев Полу и Триппа сценаристы Том Дж. Эстл и Мэтт Эмбер такова, что она вроде как и освещает не такую-то и ненужную проблему, но делает это не в достаточной степени. Сама история – она может зацепить и потащить, но это если вы некрепкий человек. Сейчас я поясню. На самом деле, с первого раза мне фильм показался таковым, что его можно было охарактеризовать как хорошее кино и при этом не устыдиться. Не устыдился я и после второго просмотра, но назвать уже это кино хорошим я просто уже не могу. Максимум – неплохим. И оно действительно неплохое. Только испытание всего-навсего вторым просмотром оно не выдерживает и даже не пытается этого делать. Итак, Трипп – иначе говоря, Мэттью МакКонахи – в свои 35 всё ещё живёт с родителями. Это едва ли не в прологе освещают. Но тут же едва ли не в прологе происходит такая нелепая сюжетная дырень, что оно просто всё зачёркивает жирной линией. Судите сами: Трипп периодически водит девушек к себе в дом (а мы помним, живёт он с предками), родители якобы хотят сплавить нерадивого сынулю восвояси, дабы старый птенец, наконец, вылетел из родительского гнезда, но при этом… отец заходит в комнату, где уединился сын с девушкой, дабы потроллить его. При этом, спугнутую девушку батя провожает словами: «И пусть катится!». Может быть, я не проникся или не напитался атмосферой их семьи, но девчонка была симпатичная, а предок не дал шанса их отношений с сыном. Было бы логично, если бы дали такую завязку, что отношения уже были бы развиты, но родители посчитали кандидатуру недостойной… Не знаю. А всё ради чего? Чтобы вывести на сцену Сару Джессику Паркер. Она прекрасно смотрится в роли Полы. В роли как раз той Полы, которой суетные родители готовы заплатить за услуги соблазнения сына и выдёргивания из отчего дома. При этом секс ни в коем разе не в правилах у Полы. Чёрт с вами, верю, что половозрелому мужу и близко это не нужно (не удержался от сарказма…). И, можете мне не верить, дорогие мои горе-создатели, но с этого момента я угадал развитие фильма на 99,9999…%. Проще говоря, оставалось развидеть детали. А с ними всё худо. Пока двое главных героев примеряли на себя покрывало сценарно-сюжетной любви, и, надо сказать, делали это действительно очень и очень хорошо, за что фильм можно похвалить, нам предпочли показать другое. А оно здесь почти полностью хилое. Брэдли Купер и Джастин Барта играют роль картонных друзей Триппа. Зои Дешанель, невзирая на моё отношение к ней, превосходно и живо смотрится в роли Кит. Это все не совсем нужные персонажи выполняют роль сценарной обёртки. Если бы не одно «но». Кит собирается убить пересмешника, который ей мечтает спать. Вот он смешной момент! И он крут здесь!.. Ну и развязка тоже, вот, кстати, понравилась, когда ГГ узнал об искусственности отношений. … Хм, а я ведь всё указал, что хотел. Что же до того: рекомендовать этот фильм к просмотру или нет – можно, но есть и другие более подходящие фильмы подобного течения. И вы все их знаете и так, без меня.------------------------------------------Оригинальное название этой романтической комедии с элементами мелодрамы 'Failure to Launch' не имеет ничего общего с отечественным прокатным названием 'Любовь и прочие неприятности'. Перевод означает что-то на вроде 'Отказ запуска', откуда же тогда взялось это прокатное название? На самом деле всё просто: наши прокатчики, не мудрствуя лукаво, придумали типичным жанровым фильмам общий формуляр, которые начинаются со слова 'Любовь', затем следует союз 'и', а дальше то, что придёт на ум (например, 'Любовь и прочие обстоятельства', 'Любовь и другие лекарства'). Всё это сделано для зрителя, который прочитав типовое название фильма сразу же определит его жанр и решит идти ли ему в кинотеатр или не стоит. Для того, чтобы идти надо иметь соответствующее настроение или же быть поклонником жанра, потому что эти фильмы редко показывают что-то новое. Сюжет этой романтической комедии расскажет о Триппе, которому уже за тридцать, а он всё также живёт у родителей. Но это вовсе не означает, что Трипп - маменькин сыночек, он пользуется этим положением, чтобы расставаться с девушками. То есть, он приглашает новую пассию к себе в дом, как вдруг в момент близкий к интимной близости оказывается, что кто-то может услышать! И эти 'кто-то' - родители Триппа! Ну кто такое вынесет? А Трипп между делом уже находит себе новую девушку, благо, он обладает внешностью красавчика и обаятельной улыбкой. Но вот на горизонте появляется некая Пола, Трипп, разумеется, затевает с ней интрижку, но когда он решает, что пора с ней расходиться, девушка проявляет недюжинную выдержку. Трипп обескуражен, а потом Пола действительно начинает ему нравиться. Однако у девушки есть одна тайна, которая может разрушить весь этот и так хлипкий союз. Но это же фильм о любви! Фильм снял режиссёр Том Дей. Работать режиссёром он стал не так давно: на момент съёмок 'Любви и прочих неприятностей' ему исполнился 41 год и в послужном списке у него было лишь два фильма. И по ним можно отметить тенденцию того как режиссёр неплохо начал, а затем качество его работ пошло вниз. Вначале его пригласили в 2000-ом снять кунг-фу-вестерн (вот же сочетание!) 'Шанхайский полдень', который был тепло принят зрителем, хотя большую часть симпатий к фильму должны принять на себя Джеки Чан и Оуэн Уилсон в тандеме. Затем был комедийный боевик 'Шоу начинается' с Эдди Мёрфи и самим Робертом Де Ниро. Вот с ним уже не было всё так гладко, фильм вызвал частые нарекания, хоть и смотрелся очень динамично. И вот пришёл момент для 'Любви и прочих неприятностей'. Надо сказать, что Том Дей не побоялся в очередной раз снимать фильм в новом жанре, но этот жанр самый лёгкий из всех у Тома Дея и внезапно Дей показывает слишком типичный фильм. Действительно типичный, даже слишком. Чтобы добиться успеха у зрителей необходимо добавить что-то особенное, какую-то 'перчинку', а не то сюжет и развитие фильма предсказывается уж слишком легко. И этой 'перчинки' (или 'изюминки') 'Любви и прочим неприятностям' не хватает однозначно. Вот и вышла обычная романтическая комедия без какого-либо напряжения и попыток добавить нечто новое жанру. Стоит также сказать, что этому способствовало и участие в картине Мэттью МакКонахи. В 2006-ом году ему ещё не давали серьёзных драматических ролей и его амплуа было ограниченным: авантюристы, спортсмены и, конечно, донжуаны. Вот в образе последнего перед нами и появляется МакКонахи. И в нём, опять же, ничего нового не будет. Полу же сыграла Сара Джессика Паркер. И вроде она как бы и ничего так, но не фонтанирует - это точно. В плюс запишу Зои Дешанель, которая наконец-то не раздражала, Брэдли Купера, который отдохнул в этом фильме, Кэти Бэйтс, которой всё равно где играть, везде она - профессионал, и Джастина Барту, создавшего достойную пару Дешанель. Обычная, типичная комедия романтического уклона, в которой участвует немалое количество знаменитых актёров. Если Вам по вкусу этот жанр или же есть настроение поймать романтическую волну, то в принципе можете обратиться к этой ленте. Также можете поступить, если нравится Мэттью МакКонахи в часто эксплуатируемом им образе ловеласа. Другим же лента может и не понравиться.------------------------------------------Наверное, в любом возрасте, начиная с подросткового, в любой стране существует эта проблема. Проблема отцов и детей. Касаемо отношений этих самых созревающих со вторыми половинками. Некоторые стремятся выпорхнуть из гнезда на абсолютно ранней стадии, некоторые – в этом гнезде предпочитают засидеться. Как раз о втором случае пойдёт эта история. Главный персонаж картины в исполнении Мэттью МакКонахи испытывает некую проблему. Создатели ленты предпочли показать именно то, что Трипп (М. МакКонахи) никак не решается покинуть отчий дом. Но… пора перейти к осмыслению сего фильма. Трипп не столько «не решается», сколько испытывает комплекс. Но да Бог с ним, с этим моментом. Однако родители молодого человека, который, к слову, разменял четвёртый десяток лет, придумали одну затею. Обратиться к услугам одной барышни – Полы. Она как бы занимается тем, что, так сказать, подталкивает парней, оказавшихся в такой как Трипп ситуации, совершить решительный шаг. Что надлежит сказать… На мой взгляд, история не блещет оригинальностью. В том плане, что предугадать развитие событий можно далеко вперёд. Но оттого, я бы счёл нужным сообщить, что она, эта история, имеет под собой интересную почву. Так сказать, фильм не пустой по своей сути. И я не могу сказать, что я прямо скучал, подперев щеку рукой. Мне было интересно в дальнейшем: как именно раскроется халтура со стороны предков и Полы. И больше всего: как именно на это отреагирует на неё главный герой. И когда это произошло (а такие фильмы неминуемо как раз и ведут к тому, что персонажи влюбляются друг в друга, хотя один из них вроде как не должен), я как раз заключил, что не напрасно я этого ждал. Придумка интересная! В роли Полы отлично смотрелась Сара Джессика Паркер. И это притом, что я обратил на неё внимание, тогда как я не очень жалую эту актрису. (Может и зря). Мэттью есть Мэттью – актёр завсегда интересный. Но я бы хотел видеть в роли Триппа больше Брэдли Купера, который сыграл здесь же, но роль незначительного второго плана. Что ж, так виднее создателям… А от меня фильм получает заслуженную «семёрку»… В принципе, я рекомендую его к просмотру всем.------------------------------------------«Любовь и прочие неприятности» - американская, комедийная мелодрама 2006 года. Данная незатейливая комедия получилась легким, непринужденным, ироничным фильмом на один раз – посмеяться и забыть. Комедия забавная и улыбчивая. В ней снялось большое количество замечательных, западных актеров. Фильм позитивный и веселый. Он хорошо подойдет для вечера влюбленной пары. Мы видим вечного холостяка, который живет с родителями и всему рад. Точка кипения подходит к своей границы, и родители, мечтающие уже наконец-то жить одни, нанимают девушку, чтобы та влюбила в себя их непутевого сына… Комедия определенно не шедевр, но она направлена для поддержания хорошего настроения, и в ней есть моменты, от которых нельзя удержаться от смеха. Звезда сериала «Секс в большом городе» Сара Джессика Паркер и голливудский актер Мэттью МакКонахи составили в этом фильме интересный и запоминающийся дуэт. Они оба актеры со стажем и с достойным списком ролей, поэтому на главные роли этой комедии подошли идеально. Они оба играли где надо комично, где надо драматично, и комедия получилась и правда милой и смешной. Зои Дешанель меня позабавила больше всех в этой комедии. Она сыграла самую смешную героиню, и все сцены с птицей, за которой она охотилась, достойны повторного просмотра, ведь было реально смешно. В роли мамы было приятно увидеть обладательницу премии Оскар за лучшую женскую роль Кэти Бейтс. Она потрясающая, светлая и замечательная актриса, и я всегда рад ее видеть в различных жанрах. Хотя комедия эта немного прилизанно и снято «по-американски», она романтичная и правда комичная, поэтому посмотреть ее можно. Есть сцены, при которых нельзя не улыбнуться.

torrent-kino.org


Смотрите также