Любовь от всех болезней скачать торрент в хорошем качестве hd 720


Любовь от всех болезней скачать торрент в хорошем качестве бесплатно

BDRipПодробнееПроф. (полное дублирование) AVI1.37 ГБскачатьПродолжительность: 01:47:29Формат: AVIВидео кодек: XviDАудио кодек: AC3Видео: 1427 kb/s, 720x304Аудио: AC3, 384 kb/s (6 ch)BDRipПодробнееПроф. (полное дублирование) AVI2.05 ГБскачатьПродолжительность: 01:47:29Формат: AVIВидео кодек: XviDАудио кодек: AC3Видео: 1946 kb/s, 720x304Аудио: Аудио1: Russian: AC3, 384 kb/s (6 ch) Аудио2: French: AC3, 384 kb/s (6 ch)BDRip (hd)ПодробнееПроф. (полное дублирование) MKV8.93 ГБскачатьПродолжительность: 01:47:29Формат: MKVВидео кодек: H.26xАудио кодек: AC3Видео: 10000 Кбит/с, 1920x800Аудио: Аудио1: Русский (AC3, 6 ch, 384 Кбит/с), Аудио2: английский (DTS, 6 ch, 1509 Кбит/с)BDRip (hd)ПодробнееПроф. (полное дублирование) MKV5.27 ГБскачатьПродолжительность: 01:47:29Формат: MKVВидео кодек: H.26xАудио кодек: AC3Видео: 5999 kb/s, 1280x532Аудио: Аудио1: Russian: AC3, 384 kb/s (6 ch) Аудио2: French: AC3, 640 kb/s (6 ch)BDRipПодробнееПроф. (полное дублирование) MKV2.18 ГБскачатьПродолжительность: 01:47:29Формат: MKVВидео кодек: H.26xАудио кодек: AC3Видео: MPEG-4 AVC, 2133 Кбит/с, 1024x424, 24 кадр/сАудио: Аудио1: Русский (AC3, 6 ch, 384 Кбит/с), Аудио2: французский (AC3, 6 ch, 384 Кбит/с)HDTVRipПодробнееПроф. (полное дублирование) AVI1.45 ГБскачатьФормат: AVIВидео кодек: XviDАудио кодек: AC3Видео: 720x304 (2.37:1), 24 fps, XviD build 73 ~1537 kbps avg, 0.29 bit/pixelАудио: 48 kHz, AC3 Dolby Digital, 3/2 (L,C,R,l,r) + LFE ch, ~384 kbpsHDTVRipПодробнееПроф. (полное дублирование) AVI746.95 МБскачатьФормат: AVIВидео кодек: XviDАудио кодек: MP3Видео: 688x288 (2.39:1), 24 fps, XviD build 73 ~834 kbps avg, 0.17 bit/pixelАудио: 48 kHz, MPEG Layer 3, 2 ch, ~128.00 kbps avgKPKПодробнееПроф. (полное дублирование) MP4486.30 МБскачатьПродолжительность: 01:47:29Формат: MP4Видео кодек: MPEG-4Аудио кодек: AACВидео: 500 Кбит/с, 320x128, 24.000 кадр/сАудио: Русский (AAC, 2 ch, 128 Кбит/с)Blu-Ray (hd)ПодробнееПроф. (полное дублирование) MKV21.49 ГБскачатьФормат: MKVВидео кодек: VC-1Аудио кодек: DTSВидео: VC-1, 26,1 Мбит/с, 1920х1080 (16:9), 24 кадр/сАудио: Аудио #1: Русский, Dolby AC3, 48000 Гц, 384 Кбит/с, 6 каналов (5.1) - DUB, R5 Аудио #2: Французский, DTS-HD MA, 48000 Гц, 1561 Кбит/с, 6 каналов (5.1) - DUB, R5BDRipПодробнееПроф. (полное дублирование) MKV1.46 ГБскачатьПродолжительность: 01:47:29Формат: MKVВидео кодек: H.26xАудио кодек: AC3Видео: 1563 Кбит/сек, 1008*420 (2,40:1), в 24,000 кадр/сек, AVCАудио: Russian, 384 Кбит/сек, 48,0 КГц, 16 бит, 6 канала(ов), AC-3BDRipПодробнееПроф. (полное дублирование) MKV748.21 МБскачатьПродолжительность: 01:47:29Формат: MKVВидео кодек: H.26xАудио кодек: AACВидео: 907 Кбит/сек, 792*330 (2,40:1), в 24,000 кадр/сек, AVCАудио: Russian, 64,0 Кбит/сек, 48,0 КГц / 24,0 КГц, 2 канала(ов), AAC (HE-AAC / LC)

torrentskino.info

Скачать фильм Любовь от всех болезней (2014) через торрент

20 февраля 2016 06:54 Любовь от всех болезней / Supercondriaque (2014) BDRip-AVC от New-Team | D | Лицензия .torrent   [Информация о файле (нажмите для просмотра)] Перевод: Профессиональный (полное дублирование) [Лицензия]Видео: 907 Кбит/сек, 792*330 (2,40:1), в 24,000 кадр/сек, AVCАудио: Russian, 64,0 Кбит/сек, 48,0 КГц / 24,0 КГц, 2 канала(ов), AAC (HE-AAC / LC)Видео: Идентификатор : 1 Формат : AVC Формат/Информация : Advanced Video Codec Профиль формата : [email protected] Параметр CABAC формата : Да Параметр ReFrames формата : 12 кадры Идентификатор кодека : V_MPEG4/ISO/AVC Продолжительность : 1 ч. 47 м. Номинальный битрейт : 907 Кбит/сек Ширина : 792 пикс. Высота : 330 пикс. Соотношение сторон : 2,40:1 Частота кадров : 24,000 кадр/сек Цветовое пространство : YUV Подвыборка цветности : 4:2:0 Битовая глубина : 8 бит Тип развёртки : Прогрессивная Бит/(Пиксели*Кадры) : 0.145 Библиотека кодирования : x264 core 142 r2431 ac76440 Настройки программы : cabac=1 / ref=12 / deblock=1:-2:-1 / analyse=0x3:0x133 / me=umh / subme=11 / psy=1 / psy_rd=1.00:0.10 / mixed_ref=1 / me_range=48 / chroma_me=1 / trellis=2 / 8x8dct=1 / cqm=0 / deadzone=21,11 / fast_pskip=0 / chroma_qp_offset=-3 / threads=12 / lookahead_threads=2 / sliced_threads=0 / nr=0 / decimate=0 / interlaced=0 / bluray_compat=0 / constrained_intra=0 / bframes=16 / b_pyramid=2 / b_adapt=2 / b_bias=0 / direct=3 / weightb=1 / open_gop=0 / weightp=2 / keyint=240 / keyint_min=24 / scenecut=40 / intra_refresh=0 / rc_lookahead=60 / rc=2pass / mbtree=0 / bitrate=907 / ratetol=1.0 / qcomp=0.70 / qpmin=0 / qpmax=69 / qpstep=4 / cplxblur=20.0 / qblur=0.5 / vbv_maxrate=20000 / vbv_bufsize=25000 / nal_hrd=none / filler=0 / ip_ratio=1.20 / pb_ratio=1.10 / aq=2:1.00Аудио: Идентификатор : 2 Формат : AAC Формат/Информация : Advanced Audio Codec Профиль формата : HE-AAC / LC Идентификатор кодека : A_AAC Продолжительность : 1 ч. 47 м. Канал(ы) : 2 канала(ов) Расположение каналов : Front: L R Частота : 48,0 КГц / 24,0 КГц Метод сжатия : С потерями Задержка видео : 31 мс. Язык : Russian 748,21 Mb 38 3 20 февраля 2016 06:54 Любовь от всех болезней / Supercondriaque (2014) BDRip-AVC от New-Team | D | Лицензия .torrent   [Информация о файле (нажмите для просмотра)] Перевод: Профессиональный (полное дублирование) [Лицензия]Видео: 1563 Кбит/сек, 1008*420 (2,40:1), в 24,000 кадр/сек, AVCАудио: Russian, 384 Кбит/сек, 48,0 КГц, 16 бит, 6 канала(ов), AC-3Видео: Идентификатор : 1 Формат : AVC Формат/Информация : Advanced Video Codec Профиль формата : [email protected] Параметр CABAC формата : Да Параметр ReFrames формата : 11 кадры Идентификатор кодека : V_MPEG4/ISO/AVC Продолжительность : 1 ч. 47 м. Битрейт : 1563 Кбит/сек Ширина : 1008 пикс. Высота : 420 пикс. Соотношение сторон : 2,40:1 Частота кадров : 24,000 кадр/сек Цветовое пространство : YUV Подвыборка цветности : 4:2:0 Битовая глубина : 8 бит Тип развёртки : Прогрессивная Бит/(Пиксели*Кадры) : 0.154 Размер потока : 1,15 Гбайт (78%) Библиотека кодирования : x264 core 142 r2431 ac76440 Настройки программы : cabac=1 / ref=11 / deblock=1:-2:-1 / analyse=0x3:0x133 / me=umh / subme=11 / psy=1 / psy_rd=1.00:0.10 / mixed_ref=1 / me_range=48 / chroma_me=1 / trellis=2 / 8x8dct=1 / cqm=0 / deadzone=21,11 / fast_pskip=0 / chroma_qp_offset=-3 / threads=12 / lookahead_threads=3 / sliced_threads=0 / nr=0 / decimate=0 / interlaced=0 / bluray_compat=0 / constrained_intra=0 / bframes=13 / b_pyramid=2 / b_adapt=2 / b_bias=0 / direct=3 / weightb=1 / open_gop=0 / weightp=2 / keyint=240 / keyint_min=24 / scenecut=40 / intra_refresh=0 / rc_lookahead=60 / rc=2pass / mbtree=0 / bitrate=1563 / ratetol=1.0 / qcomp=0.70 / qpmin=0 / qpmax=69 / qpstep=4 / cplxblur=20.0 / qblur=0.5 / vbv_maxrate=20000 / vbv_bufsize=25000 / nal_hrd=none / filler=0 / ip_ratio=1.30 / pb_ratio=1.20 / aq=2:0.90 Язык : EnglishАудио: Идентификатор : 2 Формат : AC-3 Формат/Информация : Audio Coding 3 Расширение режима : CM (complete main) Идентификатор кодека : A_AC3 Продолжительность : 1 ч. 47 м. Вид битрейта : Постоянный Битрейт : 384 Кбит/сек Канал(ы) : 6 канала(ов) Расположение каналов : Front: L C R, Side: L R, LFE Частота : 48,0 КГц Битовая глубина : 16 бит Метод сжатия : С потерями Размер потока : 295 Мбайт (20%) Заголовок : DUB, R5 Язык : Russian 1,46 Gb 96 10 20 февраля 2016 06:54 Любовь от всех болезней / Supercondriaque (2014) Blu-Ray Remux 1080p от ivandubskoj | Лицензия .torrent   [Информация о файле (нажмите для просмотра)] Перевод: Дублированный (R5)Кодек: VC-1Качество: Blu-Ray Remux (1080p) [Исходник: Supercondriaque.2014.VC-1.Blu-Ray.FRE.1080p]Видео: VC-1, 26,1 Мбит/с, 1920х1080 (16:9), 24 кадр/сАудио #1: Русский, Dolby AC3, 48000 Гц, 384 Кбит/с, 6 каналов (5.1) - DUB, R5Аудио #2: Французский, DTS-HD MA, 48000 Гц, 1561 Кбит/с, 6 каналов (5.1) - DUB, R5Субтитры: Русские, английские, французские (полные) SRT 21,49 Gb 4 3 20 февраля 2016 06:54 Любовь от всех болезней / Supercondriaque (2014) HDRip от MediaClub | КПК .torrent   [Информация о файле (нажмите для просмотра)] Перевод: ДублированныйКодек: MPEG-4Качество: HDRipВидео: 500 Кбит/с, 320x128, 24.000 кадр/сЗвук: Русский (AAC, 2 ch, 128 Кбит/с) 486,3 Mb 11 4 20 февраля 2016 06:54 Любовь от всех болезней / Supercondriaque (2014) HDRip от Scarabey | Лицензия .torrent   [Информация о файле (нажмите для просмотра)] Перевод: Профессиональный (дублированный) - ЛицензияКонтейнер: AVIВидео: 688x288 (2.39:1), 24 fps, XviD build 73 ~834 kbps avg, 0.17 bit/pixelАудио: 48 kHz, MPEG Layer 3, 2 ch, ~128.00 kbps avg 746,95 Mb 39 2 20 февраля 2016 06:54 Любовь от всех болезней / Supercondriaque (2014) HDRip от Scarabey | Лицензия .torrent   [Информация о файле (нажмите для просмотра)] Перевод: Профессиональный (дублированный) - ЛицензияКонтейнер: AVIВидео: 720x304 (2.37:1), 24 fps, XviD build 73 ~1537 kbps avg, 0.29 bit/pixelАудио: 48 kHz, AC3 Dolby Digital, 3/2 (L,C,R,l,r) + LFE ch, ~384 kbps 1,45 Gb 86 7 20 февраля 2016 06:54 Любовь от всех болезней / Supercondriaque (2014) BDRip-AVC от ExKinoRay | D | Лицензия .torrent   [Информация о файле (нажмите для просмотра)] Качество: BDRip (AVC)Видео: MPEG-4 AVC, 2133 Кбит/с, 1024x424, 24 кадр/сАудио: Русский, французский (AC3, 6 ch, 384 Кбит/с)Перевод: ДублированныйСубтитры: Русские, английские, французскиеВидео: Идентификатор : 1 Формат : AVC Формат/Информация : Advanced Video Codec Профиль формата : [email protected] Параметр CABAC формата : Да Параметр ReFrames формата : 10 кадров Идентификатор кодека : V_MPEG4/ISO/AVC Продолжительность : 1 ч. 47 м. Битрейт : 2133 Кбит/сек Ширина : 1024 пикселя Высота : 424 пикселя Соотношение сторон : 2,40:1 Режим частоты кадров : Постоянный Частота кадров : 24,000 кадра/сек Цветовое пространство : YUV Субдискретизация насыщенности : 4:2:0 Битовая глубина : 8 бит Тип развёртки : Прогрессивная Бит/(Пиксели*Кадры) : 0.205 Размер потока : 1,56 Гбайт (72%) Заголовок : Lyubovj.ot.vseh.bolezney.2014.x264.BDRip.AVC.gogamel74.ExKinoRay Библиотека кодирования : x264 core 142 r2431 ac76440 Настройки программы : cabac=1 / ref=10 / deblock=1:-3:-3 / analyse=0x3:0x133 / me=umh / subme=11 / psy=1 / psy_rd=1.00:0.15 / mixed_ref=1 / me_range=32 / chroma_me=1 / trellis=2 / 8x8dct=1 / cqm=0 / deadzone=21,11 / fast_pskip=0 / chroma_qp_offset=-3 / threads=8 / lookahead_threads=2 / sliced_threads=0 / nr=0 / decimate=0 / interlaced=0 / bluray_compat=0 / constrained_intra=0 / bframes=10 / b_pyramid=2 / b_adapt=2 / b_bias=0 / direct=3 / weightb=1 / open_gop=0 / weightp=2 / keyint=240 / keyint_min=24 / scenecut=40 / intra_refresh=0 / rc_lookahead=60 / rc=2pass / mbtree=1 / bitrate=2133 / ratetol=1.0 / qcomp=0.70 / qpmin=0 / qpmax=69 / qpstep=4 / cplxblur=20.0 / qblur=0.5 / vbv_maxrate=50000 / vbv_bufsize=62500 / nal_hrd=none / filler=0 / ip_ratio=1.40 / aq=1:1.00 Язык : French Default : Да Forced : ДаАудио #1: Идентификатор : 2 Формат : AC-3 Формат/Информация : Audio Coding 3 Расширение режима : CM (complete main) Параметр Endianness формата : Big Идентификатор кодека : A_AC3 Продолжительность : 1 ч. 47 м. Вид битрейта : Постоянный Битрейт : 384 Кбит/сек Каналы : 6 каналов Расположение каналов : Front: L C R, Side: L R, LFE Частота : 48,0 КГц Битовая глубина : 16 бит Метод сжатия : С потерями Задержка видео : 22 мс. Размер потока : 295 Мбайт (13%) Заголовок : DUB - RUS - DVD R5 - AC3, 48 KHz, 6 ch, 384 kbps, 16 bit Язык : Russian Default : Да Forced : ДаАудио #2: Идентификатор : 3 Формат : AC-3 Формат/Информация : Audio Coding 3 Расширение режима : CM (complete main) Параметр Endianness формата : Big Идентификатор кодека : A_AC3 Продолжительность : 1 ч. 47 м. Вид битрейта : Постоянный Битрейт : 384 Кбит/сек Каналы : 6 каналов Расположение каналов : Front: L C R, Side: L R, LFE Частота : 48,0 КГц Битовая глубина : 16 бит Метод сжатия : С потерями Размер потока : 295 Мбайт (13%) Заголовок : Original - FRE - BD - AC3, 48 KHz, 6 ch, 384 kbps, 16 bit Язык : French Default : Нет Forced : Нет 2,18 Gb 51 2 20 февраля 2016 06:54 Любовь от всех болезней / Supercondriaque (2014) BDRip 720p | Лицензия .torrent   [Информация о файле (нажмите для просмотра)] Формат: MKVКачество: BDRip 720pВидео: 5999 kb/s, 1280x532Аудио: Russian: AC3, 384 kb/s (6 ch) / French: AC3, 640 kb/s (6 ch)Субтитры: English 5,27 Gb 42 3 20 февраля 2016 06:54 Любовь от всех болезней / Суперхондрик / Supercondriaque (2014) BDRip 1080p от NovaLan .torrent   [Информация о файле (нажмите для просмотра)] Перевод: Дублированный (лицензия)Кодек: MPEG-4 AVCКачество: BDRip 1080pВидео: 10000 Кбит/с, 1920x800Звук: Русский (AC3, 6 ch, 384 Кбит/с), английский (DTS, 6 ch, 1509 Кбит/с)Субтитры: Английские (хардсаб)Видео: Идентификатор : 1 Формат : AVC Формат/Информация : Advanced Video Codec Профиль формата : [email protected] Параметр CABAC формата : Да Параметр ReFrames формата : 5 кадров Идентификатор кодека : V_MPEG4/ISO/AVC Продолжительность : 1 ч. 47 м. Битрейт : 10000 Кбит/сек Ширина : 1920 пикселей Высота : 800 пикселей Соотношение сторон : 2,40:1 Режим частоты кадров : Постоянный Частота кадров : 24,000 кадра/сек Цветовое пространство : YUV Субдискретизация насыщенности : 4:2:0 Битовая глубина : 8 бит Тип развёртки : Прогрессивная Бит/(Пиксели*Кадры) : 0.271 Размер потока : 7,33 Гбайт (82%) Заголовок : Supercondriaque.2014.x264.D.BDRip.(1080p).LEGi0N Библиотека кодирования : x264 core 142 r2431 ac76440 Настройки программы : cabac=1 / ref=5 / deblock=1:-1:-1 / analyse=0x3:0x133 / me=umh / subme=9 / psy=1 / psy_rd=1.00:0.30 / mixed_ref=1 / me_range=48 / chroma_me=1 / trellis=2 / 8x8dct=1 / cqm=0 / deadzone=21,11 / fast_pskip=0 / chroma_qp_offset=-4 / threads=6 / lookahead_threads=1 / sliced_threads=0 / nr=0 / decimate=1 / interlaced=0 / bluray_compat=0 / constrained_intra=0 / bframes=8 / b_pyramid=2 / b_adapt=2 / b_bias=0 / direct=3 / weightb=1 / open_gop=0 / weightp=2 / keyint=240 / keyint_min=22 / scenecut=40 / intra_refresh=0 / rc_lookahead=180 / rc=2pass / mbtree=1 / bitrate=10000 / ratetol=1.0 / qcomp=0.60 / qpmin=10 / qpmax=39 / qpstep=4 / cplxblur=20.0 / qblur=0.5 / vbv_maxrate=40000 / vbv_bufsize=30000 / nal_hrd=none / filler=0 / ip_ratio=1.40 / aq=1:0.70 Язык : English Default : Да Forced : Нет Основные цвета : BT.709 Характеристики трансфера : BT.709 Коэффициенты матрицы : BT.709 _STATISTICS_WRITING_APP : mkvmerge v7.2.0 ('On Every Street') 64bit built on Sep 13 2014 15:52:10 _STATISTICS_WRITING_DATE_UTC : 2014-10-16 13:01:56 _STATISTICS_TAGS : BPS DURATION NUMBER_OF_FRAMES NUMBER_OF_BYTES DURATION : 01:47:29.042000000 NUMBER_OF_FRAMES : 154777 NUMBER_OF_BYTES : 8058998739Аудио #1: Идентификатор : 2 Формат : AC-3 Формат/Информация : Audio Coding 3 Расширение режима : CM (complete main) Параметр Endianness формата : Big Идентификатор кодека : A_AC3 Продолжительность : 1 ч. 47 м. Вид битрейта : Постоянный Битрейт : 384 Кбит/сек Каналы : 6 каналов Расположение каналов : Front: L C R, Side: L R, LFE Частота : 48,0 КГц Битовая глубина : 16 бит Метод сжатия : С потерями Размер потока : 295 Мбайт (3%) Заголовок : Дублированный (DVD R5) Язык : Russian Default : Да Forced : НетАудио #2: Идентификатор : 3 Формат : DTS Формат/Информация : Digital Theater Systems Режим : 16 Параметр Endianness формата : Big Идентификатор кодека : A_DTS Продолжительность : 1 ч. 47 м. Вид битрейта : Постоянный Битрейт : 1509 Кбит/сек Каналы : 6 каналов Расположение каналов : Front: L C R, Side: L R, LFE Частота : 48,0 КГц Битовая глубина : 24 бит Метод сжатия : С потерями Размер потока : 1,13 Гбайт (13%) Язык : French Default : Нет Forced : Нет 8,93 Gb 20 4 20 февраля 2016 06:54 Любовь от всех болезней / Supercondriaque (2014) HDRip | Лицензия .torrent   [Информация о файле (нажмите для просмотра)] Формат: AVI (XviD)Качество: HDRip [рип с BDRip 720p]Видео: 1946 kb/s, 720x304Аудио: Russian / French: AC3, 384 kb/s (6 ch) 2,05 Gb 39 1

gig-torrent.net

Любовь от всех болезней через торрент

GeneralUnique ID : 203315834153929898624868754361071484934 (0x98F5348F9F7984CE8622E05A6ABCC006)Complete name : C:\Users\Андрей\Videos\Lub0v.ot.vs3h.b0lezHey.2014.Dt.BDRip.720p.mkvFormat : MatroskaFormat version : Version 4 / Version 2File size : 4.52 GiBDuration : 1h 47mnOverall bit rate : 6 015 KbpsEncoded date : UTC 2014-09-21 16:44:45Writing application : mkvmerge v6.1.0 ('Old Devil') built on Mar 4 2013 09:10:42Writing library : libebml v1.3.0 + libmatroska v1.4.0

VideoID : 1Format : AVCFormat/Info : Advanced Video CodecFormat profile : [email protected] settings, CABAC : YesFormat settings, ReFrames : 5 framesCodec ID : V_MPEG4/ISO/AVCDuration : 1h 47mnBit rate : 4 312 KbpsWidth : 1 280 pixelsHeight : 536 pixelsDisplay aspect ratio : 2.40:1Frame rate : 24.000 fpsColor space : YUVChroma subsampling : 4:2:0Bit depth : 8 bitsScan type : ProgressiveBits/(Pixel*Frame) : 0.262Stream size : 3.15 GiB (70%)Writing library : x264 core 142 r2431 ac76440Encoding settings : cabac=1 / ref=5 / deblock=1:0:0 / analyse=0x3:0x133 / me=umh / subme=8 / psy=1 / psy_rd=1.00:0.00 / mixed_ref=1 / me_range=16 / chroma_me=1 / trellis=1 / 8x8dct=1 / cqm=0 / deadzone=21,11 / fast_pskip=0 / chroma_qp_offset=-2 / threads=12 / lookahead_threads=2 / sliced_threads=0 / nr=0 / decimate=1 / interlaced=0 / bluray_compat=0 / constrained_intra=0 / bframes=3 / b_pyramid=2 / b_adapt=2 / b_bias=0 / direct=3 / weightb=1 / open_gop=0 / weightp=2 / keyint=250 / keyint_min=24 / scenecut=40 / intra_refresh=0 / rc_lookahead=50 / rc=2pass / mbtree=1 / bitrate=4312 / ratetol=1.0 / qcomp=0.60 / qpmin=0 / qpmax=69 / qpstep=4 / cplxblur=20.0 / qblur=0.5 / ip_ratio=1.40 / aq=1:1.00Language : EnglishDefault : YesForced : No

Audio #1ID : 2Format : AC-3Format/Info : Audio Coding 3Mode extension : CM (complete main)Codec ID : A_AC3Duration : 1h 47mnBit rate mode : ConstantBit rate : 192 KbpsChannel(s) : 2 channelsChannel positions : Front: L RSampling rate : 48.0 KHzBit depth : 16 bitsCompression mode : LossyStream size : 148 MiB (3%)Language : RussianDefault : YesForced : No

Audio #2ID : 3Format : DTSFormat/Info : Digital Theater SystemsCodec ID : A_DTSDuration : 1h 47mnBit rate mode : ConstantBit rate : 1 510 KbpsChannel(s) : 6 channelsChannel positions : Front: L C R, Side: L R, LFESampling rate : 48.0 KHzBit depth : 24 bitsCompression mode : LossyStream size : 1.13 GiB (25%)Title : FrenchLanguage : FrenchDefault : NoForced : No

Menu00:00:00.000 : en:00:00:00.00000:04:13.208 : en:00:04:13.20800:13:03.542 : en:00:13:03.54200:21:39.458 : en:00:21:39.45800:27:37.792 : en:00:27:37.79200:32:14.042 : en:00:32:14.04200:37:53.917 : en:00:37:53.91700:47:02.875 : en:00:47:02.87500:55:07.542 : en:00:55:07.54201:03:46.000 : en:01:03:46.00001:09:01.042 : en:01:09:01.04201:14:08.750 : en:01:14:08.75001:24:22.000 : en:01:24:22.00001:29:13.250 : en:01:29:13.25001:36:21.833 : en:01:36:21.83301:42:03.042 : en:01:42:03.042

piratbit.ru

Любовь от всех болезней через торрент

Год выпуска: 2014Страна: ФранцияЖанр: комедияПродолжительность: 01:47:29Перевод: Дубляж, Лицензия

Режиссер: Дэни БунПродюссер: Эрик Юбер, Жером Сейду, Ромейн Ле ГрандСценарий: Дэни БунПремьера в мире: 15 января 2014

IMDB 5.80 (1668)

В ролях: Дэни Бун, Кад Мерад, Алис Поль, Жан-Ив Бертело, Жюдит Эль Зейн, Валери Боннетон, Марта Виллалонга, Бруно Лоше, Жером Коммандёр, Джонатан Коэн, Владимир Скворцов, Эдуард Радзюкевич, Рамиля Хисаинова, Илья Барабанов, Алина Ольшанская

Описание: Роман Фобер — чудак и ипохондрик. Он никогда не был женат. Вся его жизнь сводится к тому, чтобы выискивать у себя симптомы страшных, на деле не существующих, болезней. Каждой находкой он стремится поделиться со своим единственным другом — доктором Димитрием Звенкой. Димитрий решает помочь Роману найти женщину и таким образом излечить его от постоянной ипохондрии, которая становится невыносимой.

Качество: HDRipФормат: AVIВидео кодек: XviDАудио кодек: AC3Видео: XviD, 1946 Кбит/с, 720x304, 24.000 fpsАудио#1: Русский: AC3, 6 ch, 384 Кбит/c, 48.0 KHzАудио#2: Французский: AC3, 6 ch, 384 Кбит/c, 48.0 KHz

GeneralComplete name : /home/sb753/files/Lub0v.ot.vs3h.b0lezHey.2014.D.HDRip.2100Mb.aviFormat : AVIFormat/Info : Audio Video InterleaveFormat profile : OpenDMLFile size : 2.05 GiBDuration : 1h 47mnOverall bit rate : 2 732 KbpsWriting application : VirtualDubMod 1.5.10.2 (build 2540/release)Writing library : VirtualDubMod build 2540/release

VideoID : 0Format : MPEG-4 VisualFormat profile : Advanced [email protected] settings, BVOP : 2Format settings, QPel : NoFormat settings, GMC : No warppointsFormat settings, Matrix : Default (MPEG)Codec ID : XVIDCodec ID/Hint : XviDDuration : 1h 47mnBit rate : 1 946 KbpsWidth : 720 pixelsHeight : 304 pixelsDisplay aspect ratio : 2.35:1Frame rate : 24.000 fpsColor space : YUVChroma subsampling : 4:2:0Bit depth : 8 bitsScan type : ProgressiveCompression mode : LossyBits/(Pixel*Frame) : 0.370Stream size : 1.46 GiB (71%)Writing library : XviD 1.2.1 (UTC 2008-12-04)

Audio #1ID : 1Format : AC-3Format/Info : Audio Coding 3Mode extension : CM (complete main)Format settings, Endianness : BigCodec ID : 2000Duration : 1h 47mnBit rate mode : ConstantBit rate : 384 KbpsChannel(s) : 6 channelsChannel positions : Front: L C R, Side: L R, LFESampling rate : 48.0 KHzBit depth : 16 bitsCompression mode : LossyStream size : 295 MiB (14%)Alignment : Split accross interleavesInterleave, duration : 42 ms (1.00 video frame)Interleave, preload duration : 500 ms

Audio #2ID : 2Format : AC-3Format/Info : Audio Coding 3Mode extension : CM (complete main)Format settings, Endianness : BigCodec ID : 2000Duration : 1h 47mnBit rate mode : ConstantBit rate : 384 KbpsChannel(s) : 6 channelsChannel positions : Front: L C R, Side: L R, LFESampling rate : 48.0 KHzBit depth : 16 bitsCompression mode : LossyStream size : 295 MiB (14%)Alignment : Split accross interleavesInterleave, duration : 42 ms (1.00 video frame)Interleave, preload duration : 500 ms

piratbit.ru


Смотрите также