Любовь с ограничениями скачать торрент


2016 hd 720

!

: : 2016: , : : , ,

: 6.3/10 (4 718 )

:, . , . , , ? -, . . ! , , : ?

: : [iTunes]

: AVI: BDRip

1281

614

udp://shubt.net:2710

153 2 35

udp://bt.megapeer.org:6969

156 3 2319

udp://kaztorka.org:2710

58 12 19

http://tracker.filetracker.pl:8089/announce

74 81 13

http://tracker2.wasabii.com.tw:6969/announce

62 10 79

http://tracker.grepler.com:6969/announce

30 57 73

http://125.227.35.196:6969/announce

55 79 85

http://tracker.tiny-vps.com:6969/announce

76 91 99

http://87.248.186.252:8080/announce

18 55 90

http://210.244.71.25:6969/announce

152 4 1772

http://46.4.109.148:6969/announce

54 70 93

udp://46.148.18.250:2710

153 2 35

http://tracker.dler.org:6969/announce

54 39 30

udp://[2001:67c:28f8:92::1111:1]:2710

96 28 38

udp://ipv6.leechers-paradise.org:6969

90 81 31

1,46 Gb

15217

Lyubov.s.ogranicheniyami.2016.BDRip.1.46Gb.MegaPeer.avi (1,46 Gb)

789

629

udp://shubt.net:2710

55 2 16

udp://tracker.openbittorrent.com:80/announce

85 62 43

udp://tracker.publicbt.com:80/announce

32 19 43

http://tracker.filetracker.pl:8089/announce

28 67 62

http://tracker2.wasabii.com.tw:6969/announce

70 74 51

http://tracker.grepler.com:6969/announce

11 72 84

http://125.227.35.196:6969/announce

87 58 52

http://tracker.tiny-vps.com:6969/announce

54 76 85

http://87.248.186.252:8080/announce

76 20 43

http://210.244.71.25:6969/announce

53 2 933

http://46.4.109.148:6969/announce

60 61 60

udp://46.148.18.250:2710

59 2 16

http://tracker.dler.org:6969/announce

16 16 76

udp://[2001:67c:28f8:92::1111:1]:2710

40 71 18

udp://ipv6.leechers-paradise.org:6969

63 27 51

4,85 Gb

1423

Lyubov.s.ogranicheniyami.2017.O.BDRip.720p.mkv (4,85 Gb)

vtorrents.net

Скачать торрент Любовь с ограничениями (2016) WEB-DL 1080p

Информация о фильме Оригинальное название: Любовь с ограничениямиГод выхода: 2016Жанр: комедия, мелодрамаРежиссер: Дмитрий ТюринВ ролях: Павел Прилучный, Анна Старшенбаум, Илья Глинников, Алексей Чадов, Алексей Воробьев, Кирилл Плетнёв, Сергей Кутергин, Тимур Боканча, Ксения Иванова, Павел Шевандо

О фильме: Однажды самый обычный парень Миша узнает об указе Президента России, по которому в крупных компаниях должно работать два процента людей с ограниченными возможностями. И тут в его «светлую» голову приходит идея, как воплотить свою давнюю мечту о богатой и беззаботной жизни. Не долго думая, Миша получает фиктивные медицинские документы, садится в коляску и едет на собеседование, и не куда-нибудь, а в сам «Нашгаз»! И, о чудо, им как раз не хватает одного человека до той самой квоты. Жизнь удалась! Престижная работа, большая зарплата, отличная квартира, весь мир открыт для него, только есть одно «но», одно маленькое ограничение — он должен постоянно быть в инвалидном кресле! И не просто быть в нем, он при этом еще не должен «спалиться».

Миша, попадая подряд в одну за другой нелепые ситуации, понимает, что единственное реальное место «набраться опыта» — клуб людей с ограниченными возможностями. Он вступает в него… и сразу же становится там всеобщим любимцем. Ведь в его глазах нет потухшей надежды, он оптимистичен и весел (правда, совсем не по той причине, по которой все там думают). Особенно он симпатичен Марине, очень милой и красивой девушке, которая с детства прикована к коляске. А дальше для Миши все сильно запуталось — офис, деньги, вечеринки, клуб инвалидов, ограничения, друзья, совесть, и, конечно же, любовь. Как выпутаться из этой ситуации? Как признаться всем, и особенно ей, в своей афере? И как понять, что ты действительно хочешь и чувствуешь?

Выпущено: Россия / Art Pictures Studio, ВайТ МедиаПродолжительность: 01:38:30Озвучивание: Оригинальное [iTunes]

Файл Формат: MKVКачество: WEB-DL 1080pВидео: MPEG-4 AVC, 4542 kb/s, 1920x804 Аудио: AAC, 126 kb/s (2 ch)

MI

Format : Matroska Format version : Version 2 File size : 3.21 GiB Duration : 1 h 38 min Overall bit rate : 4 670 kb/s Encoded date : UTC 2017-04-08 18:06:01 Writing application : mkvmerge v8.3.0 ('Over the Horizon') 64bit Writing library : libebml v1.3.1 + libmatroska v1.4.2

Video ID : 1 Format : AVC Format/Info : Advanced Video Codec Format profile : [email protected] Format settings, CABAC : Yes Format settings, ReFrames : 5 frames Codec ID : V_MPEG4/ISO/AVC Duration : 1 h 38 min Bit rate : 4 542 kb/s Width : 1 920 pixels Height : 804 pixels Display aspect ratio : 2.40:1 Frame rate mode : Constant Frame rate : 25.000 FPS Color space : YUV Chroma subsampling : 4:2:0 Bit depth : 8 bits Scan type : Progressive Bits/(Pixel*Frame) : 0.118 Stream size : 3.12 GiB (97%) Language : English Default : Yes Forced : No Color range : Limited Color primaries : BT.709 Transfer characteristics : BT.709 Matrix coefficients : BT.709

Audio ID : 2 Format : AAC Format/Info : Advanced Audio Codec Format profile : LC Codec ID : A_AAC Duration : 1 h 38 min Bit rate : 126 kb/s Channel(s) : 2 channels Channel positions : Front: L R Sampling rate : 48.0 kHz Frame rate : 46.875 FPS (1024 spf) Compression mode : Lossy Stream size : 88.6 MiB (3%) Language : Russian Default : Yes Forced : No

Menu 00:00:00.000 : en:Глава 1 00:06:13.080 : en:Глава 2 00:12:44.080 : en:Глава 3 00:18:31.560 : en:Глава 4 00:26:05.880 : en:Глава 5 00:32:59.440 : en:Глава 6 00:38:25.920 : en:Глава 7 00:44:56.640 : en:Глава 8 00:50:20.560 : en:Глава 9 00:55:32.920 : en:Глава 10 01:01:07.480 : en:Глава 11 01:06:17.320 : en:Глава 12 01:12:28.000 : en:Глава 13 01:18:10.280 : en:Глава 14 01:24:30.800 : en:Глава 15 01:32:08.640 : en:Глава 16

mrutor.org

Скачать торрент Любовь с ограничениями (2016) WEB-DLRip-AVC от New-Team

Любовь с ограничениями

Страна: РоссияЖанр: комедия, мелодрамаГод выпуска: 2016Продолжительность: 01:38:30

Перевод: Не требуетсяCубтитры: нетОригинальная аудиодорожка: русский

Режиссер: Дмитрий Тюрин

В ролях: Павел Прилучный, Анна Старшенбаум, Илья Глинников, Алексей Чадов, Алексей Воробьев, Кирилл Плетнёв, Сергей Кутергин, Тимур Боканча, Ксения Иванова, Павел Шевандо, Наталья Бардо, Анастасия Чепелюк

Описание: Однажды самый обычный парень Миша узнает об указе Президента России, по которому в крупных компаниях должно работать два процента людей с ограниченными возможностями. И тут в его «светлую» голову приходит идея, как воплотить свою давнюю мечту о богатой и беззаботной жизни. Не долго думая, Миша получает фиктивные медицинские документы, садится в коляску и едет на собеседование, и не куда-нибудь, а в сам «Нашгаз»! И, о чудо, им как раз не хватает одного человека до той самой квоты. Жизнь удалась! Престижная работа, большая зарплата, отличная квартира, весь мир открыт для него, только есть одно «но», одно маленькое ограничение - он должен постоянно быть в инвалидном кресле! И не просто быть в нем, он при этом еще не должен «спалиться».

Релиз:

Автор рипа: stalkerok

Сэмпл

Качество видео: WEB-DLRip-AVC [WEB-DL / 1080p]Формат видео: MKVВидео кодек: AVCАудио кодек: AACВидео: 1875 Кбит/сек, 1132*474 (2,40:1), в 25,000 кадров/сек, AVCАудио: русский, 126 Кбит/сек, 48,0 КГц, 2 канала, AAC (LC) [iTunes]Навигация по главам: есть

x264/MediaInfo

[09.04.2017 23:42:50] x264 [info]: frame I:1167 Avg QP:16.46 size: 52931 [09.04.2017 23:42:50] x264 [info]: frame P:39194 Avg QP:18.09 size: 18961 [09.04.2017 23:42:50] x264 [info]: frame B:107389 Avg QP:21.34 size: 5404

Общее Уникальный идентификатор : 205807867724831081596432464258537264427 (0x9AD5274D5C3A44AAB305C21B509A952B) Полное имя : M:!!!!!!!!!!!!!!!!!!!Love.SLubov.s.ogranichenijami.2016.WEB-DLRip-AVC.RUS.stalkerok.new-team.mkv Формат : Matroska Версия формата : Version 4 / Version 2 Размер файла : 1,38 Гбайт Продолжительность : 1 ч. 38 м. Общий поток : 2003 Кбит/сек Название фильма : Любовь с ограничениями (2016) (Rip by stalkerok) Дата кодирования : UTC 2017-04-09 20:44:38 Программа кодирования : mkvmerge v8.6.1 ('Flying') 64bit Библиотека кодирования : libebml v1.3.3 + libmatroska v1.4.4

Видео Идентификатор : 1 Формат : AVC Формат/Информация : Advanced Video Codec Профиль формата : [email protected] Параметр CABAC формата : Да Параметр ReFrames формата : 14 кадров Идентификатор кодека : V_MPEG4/ISO/AVC Продолжительность : 1 ч. 38 м. Битрейт : 1875 Кбит/сек Ширина : 1132 пикселя Высота : 474 пикселя Соотношение сторон : 2,40:1 Режим частоты кадров : Постоянный Частота кадров : 25,000 кадров/сек Цветовое пространство : YUV Субдискретизация насыщенности : 4:2:0 Битовая глубина : 8 бит Тип развёртки : Прогрессивная Бит/(Пиксели*Кадры) : 0.140 Размер потока : 1,29 Гбайт (94%) Заголовок : Любовь с ограничениями (2016) (Rip by stalkerok) Библиотека кодирования : x264 core 148 r2705+54 9f484c1 t_mod_Custom [[email protected] X86_64] Настройки программы : cabac=1 / ref=14 / deblock=1:-3:-2 / analyse=0x3:0x133 / me=umh / subme=10 / psy=1 / fade_compensate=0.00 / psy_rd=1.00:0.00 / mixed_ref=1 / me_range=32 / chroma_me=1 / trellis=2 / 8x8dct=1 / cqm=0 / deadzone=21,11 / fast_pskip=0 / chroma_qp_offset=-2 / threads=12 / lookahead_threads=3 / sliced_threads=0 / nr=0 / decimate=1 / interlaced=0 / bluray_compat=0 / constrained_intra=0 / fgo=0 / bframes=14 / b_pyramid=2 / b_adapt=2 / b_bias=0 / direct=3 / weightb=1 / open_gop=0 / weightp=2 / keyint=250 / keyint_min=25 / scenecut=40 / intra_refresh=0 / rc_lookahead=60 / rc=crf / mbtree=0 / crf=18.9000 / qcomp=0.65 / qpmin=0:0:0 / qpmax=69:69:69 / qpstep=4 / vbv_maxrate=50000 / vbv_bufsize=62500 / crf_max=0.0 / nal_hrd=none / filler=0 / ip_ratio=1.40 / pb_ratio=1.30 / aq=3:0.85 / aq-sensitivity=10.00 / aq-factor=1.00:1.00:1.00 / aq2=0 / aq3=0 Default : Да Forced : Нет

Аудио Идентификатор : 2 Формат : AAC Формат/Информация : Advanced Audio Codec Профиль формата : LC Идентификатор кодека : A_AAC Продолжительность : 1 ч. 38 м. Битрейт : 126 Кбит/сек Каналы : 2 канала Расположение каналов : Front: L R Частота : 48,0 КГц Частота кадров : 46,875 кадров/сек (1024 spf) Метод сжатия : С потерями Размер потока : 88,6 Мбайт (6%) Язык : Russian Default : Да Forced : Нет

Меню 00:00:00.000 : en:Глава 1 00:06:13.080 : en:Глава 2 00:12:44.080 : en:Глава 3 00:18:31.560 : en:Глава 4 00:26:05.880 : en:Глава 5 00:32:59.440 : en:Глава 6 00:38:25.920 : en:Глава 7 00:44:56.640 : en:Глава 8 00:50:20.560 : en:Глава 9 00:55:32.920 : en:Глава 10 01:01:07.480 : en:Глава 11 01:06:17.320 : en:Глава 12 01:12:28.000 : en:Глава 13 01:18:10.280 : en:Глава 14 01:24:30.800 : en:Глава 15 01:32:08.640 : en:Глава 16

mrutor.org

2017 WEBRip

HDRip

HDRip

HDRip

HDRip

HDRip

HDRip

HDRip

HDRip

HDRip

HDRip

HDRip

HDRip

HDRip

HDRip

HDRip

HDRip

HDRip

DVDRip

HDRip

HDRip

HDRip

HDRip

HDRip

HDRip

HDRip

:WEBRip :2017

:1.46 GB:

: 01:39:56

: () | iTunes

: ,

:

: , , , ,

:  , , , . , , . , , , , . , , , , , , , . , . , , , ?

dle 11.0
, ! , 1. !2. , ! 3. !torrentum.org - , , ! , , . , , .

torrentum.org


Смотрите также