Скачать фильм любовь это все что тебе нужно через торрент


Скачать Любовь – это всё, что тебе нужно через торрент

Категория: Фильмы 1862 0 Торрент добавлен: 15-04-2015 Рейтинг:

Жанр: мелодрама, комедия Выпущено: Дания, Швеция, Италия, Франция, ГерманияПродолжительность: 01:51:13 Режиссер: Сюзанна Бир В ролях: Трине Дюрхольм, Пирс Броснан, Паприка Стеэн, Ким Бодниа, Кристиан Шамбург-Мюллер, Себастьян Йессен, Стина Экблад, Молли Бликст, Эгелинд Бодиль, Ёргенсон Мики, Скил Хансен

Филипп — богатый, красивый и одинокий вдовец. Все что у него есть - это его фирма занимающаяся выращиванием и продажей овощей, а так же сын. Перемены в его жизни наступают как раз благодаря сыну. Он женится на девушке из Швеции и просит разрешение у отца отметить свадьбу на их вилле в городе Сорренто, Италия. Филипп соглашается и приезжает на свадьбу сына. И именно на ней он знакомится с той, что снова наполнит его жизнь романтикой и любовью.

Трейлер к фильму Любовь – это всё, что тебе нужно

Любовь – это всё, что тебе нужно скачать торрент

Качество: BDRip 1080pВидео: MPEG-4 AVC, 9713 Кбит/с, 1920x816 Audio: Русский (AC3, 6 ch, 448 Кбит/с), (AC3, 2 ch, 192 Кбит/с), датский (DTS, 6 ch, 1509 Кбит/с)Дублированный, любительский двухголосый 9,05 Gb

скачать

Качество: BDRip 720pВидео: MPEG4 Video (h364) 1280x544 25fps ~5514 kbps avg Audio: Russian: AC3, 448 Kb/s (6 ch) / Dutch: DTS, 1510 Kb/s (6 ch)Проф. (полное дублирование)

5,81 Gb

скачать

Кодек: XviDКачество: HDRipВидео: 720x304 (2.37:1), 25 fps, XviD MPEG-4 ~1422 kbps avg, 0.26 bit/pixelЗвук: 48 kHz, AC3 Dolby Digital, 3/2 (L,C,R,l,r) + LFE ch, ~448 kbpsПроф. (полное дублирование)

скачать

Вы находитесь на странице, где можете совершенно бесплатно скачать фильм Любовь – это всё, что тебе нужно в хорошем качестве через торрент, в любом формате, который больше всего вам на данный момент подходит. Скачивание осуществляется через торрент, что означает максимально высокую скорость загрузки. Желаем Вам приятного просмотра!. Не забудь поделиться своими впечатлениями после того как посмотришь фильм Любовь – это всё, что тебе нужно.

Информация Посетители, находящиеся в группе Гости, не могут оставлять комментарии к данной публикации.

psp-gu.ru

Скачать фильм Любовь – это всё, что тебе нужно (2012) через торрент

31 января 2016 12:34 Любовь – это всё, что тебе нужно / Den skaldede frisr (2012) BDRip от HELLYWOOD | лицензия .torrent   [Информация о файле (нажмите для просмотра)] Перевод: Профессиональный (полное дублирование) /Лицензия/ + Оригинальная звуковая дорожкаСубтитры: Английские (Отдельным файлом)Формат: AVIКачество: BDRip (источник: /Blu-ray Disc/1080p) Видео: 720x304 (2.37:1), 23.976 fps, XviD build 65 ~1789 kbps avg, 0.34 bit/pixelАудио: #1: 48 kHz, AC3 Dolby Digital, 3/2 (L,C,R,l,r) + LFE ch, 448.00 kbps|DUB|Аудио: #2: 48 kHz, AC3 Dolby Digital, 3/2 (L,C,R,l,r) + LFE ch, 448.00 kbps|DAN| 2,18 Gb 23 3 31 января 2016 12:33 Любовь – это всё, что тебе нужно / Den skaldede frisr (2012) BDRip-AVC от HELLYWOOD .torrent   [Информация о файле (нажмите для просмотра)] Перевод: Профессиональный (полное дублирование) Субтитры: Русские, английскиеКачество: BDRip-AVC [LOVE_IS_ALL_YOU_NEED_HDCLUB]Формат: MKVВидео: х.264, 1036x432 (2,40:1), 23,976 fps, 1799 Кbps, 0.168 bit/pixelАудио#1: 48 kHz, AC3 Dolby Digital, 3/2 (L,C,R,l,r) + LFE ch, 448.00 kbps |RUSАудио#2: 48 kHz, AC3 Dolby Digital, 3/2 (L,C,R,l,r) + LFE ch, 448.00 kbps |DANВидео: Идентификатор : 1 Формат : AVC Формат/Информация : Advanced Video Codec Профиль формата : [email protected] Параметр CABAC формата : Да Параметр ReFrames формата : 10 кадров Идентификатор кодека : V_MPEG4/ISO/AVC Продолжительность : 1 ч. 56 м. Битрейт : 1799 Кбит/сек Ширина : 1036 пикселей Высота : 432 пикселя Соотношение сторон : 2,40:1 Режим частоты кадров : Постоянный Частота кадров : 23,976 кадра/сек Цветовое пространство : YUV Субдискретизация насыщенности : 4:2:0 Битовая глубина : 8 бит Тип развёртки : Прогрессивная Бит/(Пиксели*Кадры) : 0.168 Размер потока : 1,42 Гбайт (65%) Заголовок : Den skaldede fris?r Библиотека кодирования : x264 core 130 r2273 b3065e6 Настройки программы : cabac=1 / ref=10 / deblock=1:-2:-2 / analyse=0x3:0x133 / me=umh / subme=11 / psy=1 / psy_rd=1.06:0.01 / mixed_ref=1 / me_range=32 / chroma_me=1 / trellis=2 / 8x8dct=1 / cqm=0 / deadzone=21,11 / fast_pskip=0 / chroma_qp_offset=-3 / threads=9 / lookahead_threads=2 / sliced_threads=0 / nr=0 / decimate=1 / interlaced=0 / bluray_compat=0 / constrained_intra=0 / bframes=11 / b_pyramid=2 / b_adapt=2 / b_bias=0 / direct=3 / weightb=1 / open_gop=0 / weightp=2 / keyint=250 / keyint_min=23 / scenecut=40 / intra_refresh=0 / rc_lookahead=150 / rc=2pass / mbtree=1 / bitrate=1799 / ratetol=1.0 / qcomp=0.70 / qpmin=0 / qpmax=69 / qpstep=4 / cplxblur=20.0 / qblur=0.5 / vbv_maxrate=20000 / vbv_bufsize=20000 / nal_hrd=none / ip_ratio=1.35 / aq=2:0.80 Язык : Dutch Default : Да Forced : НетАудио #1: Идентификатор : 2 Формат : AC-3 Формат/Информация : Audio Coding 3 Расширение режима : CM (complete main) Параметр Endianness формата : Big Идентификатор кодека : A_AC3 Продолжительность : 1 ч. 56 м. Вид битрейта : Постоянный Битрейт : 448 Кбит/сек Каналы : 6 каналов Расположение каналов : Front: L C R, Side: L R, LFE Частота : 48,0 КГц Битовая глубина : 16 бит Метод сжатия : С потерями Размер потока : 372 Мбайт (17%) Заголовок : Dub | DD 5.1 @ 448 kbps Язык : Russian Default : Да Forced : ДаАудио #2: Идентификатор : 3 Формат : AC-3 Формат/Информация : Audio Coding 3 Расширение режима : CM (complete main) Параметр Endianness формата : Big Идентификатор кодека : A_AC3 Продолжительность : 1 ч. 56 м. Вид битрейта : Постоянный Битрейт : 448 Кбит/сек Каналы : 6 каналов Расположение каналов : Front: L C R, Side: L R, LFE Частота : 48,0 КГц Битовая глубина : 16 бит Метод сжатия : С потерями Размер потока : 372 Мбайт (17%) Заголовок : Original | DD 5.1 @ 448 kbps Язык : Danish Default : Нет Forced : Нет 2,19 Gb 17 4 31 января 2016 12:33 Любовь - это всё, что тебе нужно / Den skaldede frisr (2012) BDRip-AVC от MediaClub | D .torrent   [Информация о файле (нажмите для просмотра)] Перевод: Дублированный + оригиналКодек: MPEG-4 AVCКачество: BDRip-AVCВидео: 2650 Кбит/с, 1024x436, 23.976 кадр/сЗвук: Аудио #1: Русский (AC3, 6 ch, 448 Кбит/с) | ДублированныйАудио #2: Датский (AC3, 6 ch, 448 Кбит/с) 2,87 Gb 7 4 31 января 2016 12:33 Любовь – это всё, что тебе нужно / Den skaldede frisor (2012) DVD5 от New-Team | D | сжатый .torrent   [Информация о файле (нажмите для просмотра)] Перевод: Профессиональный (дублированный)Контейнер: DVD VideoВидео: PAL 16x9 (720х576) VBR ~ 5755 kbps, Auto LetterboxedАудио: 48 kHz, Dolby AC3 5.1 448 kbps, русский 4,37 Gb 1 1 31 января 2016 12:33 Любовь – это всё, что тебе нужно / Den skaldede frisor (2012) DVD9 R5 от New-Team | D | лицензия .torrent   [Информация о файле (нажмите для просмотра)] Перевод: Профессиональный (дублированный)Контейнер: DVD VideoВидео: PAL 16x9 (720х576) VBR ~ 5755 kbps, Auto LetterboxedАудио: 48 kHz, Dolby AC3 5.1 448 kbps, русский 4,83 Gb 2 6 31 января 2016 12:33 Любовь – это всё, что тебе нужно / Den skaldede frisor (2012) HDRip от Scarabey | D | Лицензия .torrent   [Информация о файле (нажмите для просмотра)] Перевод: Профессиональный (полное дублирование) |Лицензия|Качество: HDRipФормат: AVIВидео: 720x304 (2.37:1), 25 fps, XviD build 50 ~2363 kbps avg, 0.43 bit/pixelАудио: 48 kHz, AC3 Dolby Digital, 3/2 (L,C,R,l,r) + LFE ch, ~448.00 kbps avg 2,19 Gb 8 4 31 января 2016 12:33 Любовь – это всё, что тебе нужно / Den skaldede frisor (2012) HDRip от Scarabey | D | Лицензия .torrent   [Информация о файле (нажмите для просмотра)] Перевод: Профессиональный (полное дублирование) |Лицензия|Качество: HDRipФормат: AVIВидео: 720x304 (2.37:1), 25 fps, XviD build 50 ~1410 kbps avg, 0.26 bit/pixelАудио: 48 kHz, AC3 Dolby Digital, 3/2 (L,C,R,l,r) + LFE ch, ~448.00 kbps avg 1,45 Gb 26 2 31 января 2016 12:33 Любовь – это всё, что тебе нужно / Den skaldede frisor (2012) HDRip от Scarabey | D | Лицензия .torrent   [Информация о файле (нажмите для просмотра)] Перевод: Профессиональный (полное дублирование) |Лицензия|Качество: HDRipФормат: AVIВидео: 688x288 (2.39:1), 25 fps, XviD build 50 ~796 kbps avg, 0.16 bit/pixelАудио: 48 kHz, MPEG Layer 3, 2 ch, ~128.00 kbps avg 743,49 Mb 17 4 31 января 2016 12:33 Любовь – это всё, что тебе нужно / Den skaldede frisor (2012) BDRip 1080p | D, L2 .torrent   [Информация о файле (нажмите для просмотра)] Качество: BDRip 1080pВидео: MPEG-4 AVC, 9713 Кбит/с, 1920x816Субтитры: Английские 9,05 Gb 9 5 31 января 2016 12:33 Любовь – это всё, что тебе нужно / Den skaldede frisor (2012) BDRip 720p .torrent   [Информация о файле (нажмите для просмотра)] Качество: BDRip 720pВидео: MPEG4 Video (h364) 1280x544 25fps ~5514 kbps avgСубтитры: English, Danish 5,81 Gb 12 5 31 января 2016 12:33 Любовь – это всё, что тебе нужно / Den skaldede frisor (2012) HDRip .torrent   [Информация о файле (нажмите для просмотра)] Кодек: XviDКачество: HDRipВидео: 720x304 (2.37:1), 25 fps, XviD MPEG-4 ~1748 kbps avg, 0.32 bit/pixel 2,06 Gb 2 2 31 января 2016 12:33 Любовь – это всё, что тебе нужно / Den skaldede frisor (2012) HDRip .torrent   [Информация о файле (нажмите для просмотра)] Кодек: XviDКачество: HDRipВидео: 720x304 (2.37:1), 25 fps, XviD MPEG-4 ~1422 kbps avg, 0.26 bit/pixelЗвук: 48 kHz, AC3 Dolby Digital, 3/2 (L,C,R,l,r) + LFE ch, ~448 kbps 1,46 Gb 26 2 31 января 2016 12:33 Любовь – это всё, что тебе нужно / Den skaldede frisor (2012) HDRip от CinemaClub l L2 .torrent   [Информация о файле (нажмите для просмотра)] Перевод: Любительский (двухголосый закадровый)den904 и DeadSnoКодек: XviD (AVI)Качество: HDRipВидео: 688x288 (2.39:1), 23.976 fps, XviD build 50 ~743 kbps avg, 0.16 bit/pixelЗвук: 48 kHz, MPEG Layer 3, 2 ch, ~128.00 kbps avg 701,03 Mb 4 4 31 января 2016 12:33 Любовь – это всё, что тебе нужно / Den skaldede frisr (2012) DVDRip | L2 .torrent   [Информация о файле (нажмите для просмотра)] Формат: AVI (XviD)Качество: DVDRipВидео: 1677 kb/s, 720x304Аудио: AC3, 192 kb/s (2 ch) 1,46 Gb 7 1

gig-torrent.net

Любовь – это всё, что тебе нужно через торрент

Размер: 4.83 GB | Добавлен: 4 года 6 мес. назад | Торрент скачан:34 раза
Реклама Дарим 3000 рублей за регистрацию, не упусти свой шанс получить шикарный бонус!!!

15-04-2013 22:27 Любовь – это всё, что тебе нужно Скачать торрент  

Любовь – это всё, что тебе нужно / All you need is Love / Den skaldede frisør Страна: Дания, Швеция, Италия, Франция, ГерманияСтудия: arte, Film i Väst, Liberator Productions, Lumière & Company, Network Movie, Slot Machine, Teodora Film, ZDF, Zentropa International Köln, Zentropa International Sweden, Zentropa ProductionsЖанр: мелодрама, комедияГод выпуска: 2012Мировая премьера: 2 сентября 2012Российская премьера: 7 марта 2013Дата выхода DVD: 9 апреля 2013Дата выхода Blu-Ray: 9 апреля 2013Продолжительность: 01:51:15Перевод: Профессиональный (дублированный) [Лицензия]Cубтитры: нетОригинальная аудиодорожка: нетРежиссер: Сюзанна Бир / Susanne BierВ ролях: Трине Дюрхольм, Пирс Броснан, Паприка Стеэн, Ким Бодния, Кристиан Шамбург-Мюллер, Себастьян Йессен, Молли Бликст Эгелинд, Стина Экблад, Бодиль Ёргенсон, Рикке Луиз Андерссон...Описание: Филипп красив, богат и… одинок. Ида замужем, но ее супруг увлечен другой. Скоро они встретятся на свадьбе своих детей в одном из самых живописных городов мира -итальянском Сорренто. Знойные неаполитанские ночи, аромат лимонных деревьев и непередаваемая атмосфера праздника помогут вспомнить, что любовь — это все, что им нужно…Бонусы: нет Релиз группы: Качество: DVD9 R5Формат: DVD-VideoВидео кодек: MPEG2Аудио кодек: AC3Видео: PAL 16:9 (720x576(0.557)) MPEG Video, 25,000 кадр/сек, 5777 Кбит/секАудио: Russian (Dolby AC3, 6 ch) 448 Кбит/сек, 48,0 КГцTitle: Ljubov.jeto.vsjo.chto.tebe.nuzhno.2012.DVD9Size: 4.83 Gb ( 5 062 436,00 KBytes ) - DVD-9Enabled regions: 1, 2, 3, 4, 5, 6, 7, 8

VTS_01 :Play Length: 01:51:14Video: PAL 16:9 (720x576) VBR, Auto LetterboxedAudio:Russian (Dolby AC3, 6 ch)

* Menus Information *

VIDEO_TS MenuVideo:PAL 16:9 (720x576) VBRAuto LetterboxedAudio:Not specified (Dolby AC3, 2 ch)Russian Language Unit :Title Menu

VTS_01 MenuVideo:PAL 16:9 (720x576) VBRAuto LetterboxedAudio:Not specified (Dolby AC3, 2 ch)Russian Language Unit :Root Menu

ОбщееПолное имя : M:Новинки 2013Ljubov.jeto.vsjo.chto.tebe.nuzhno.2012.DVD9VIDEO_TSVTS_01_2.VOBФормат : MPEG-PSРазмер файла : 1024 МбайтПродолжительность : 22 м.Режим общего битрейта : ПеременныйОбщий поток : 6352 Кбит/сек

ВидеоИдентификатор : 224 (0xE0)Формат : MPEG VideoВерсия формата : Version 2Профиль формата : [email protected]Параметр BVOP формата : ДаПараметр матрицы формата : ВыборочнаяПараметр GOP формата : M=3, N=15Продолжительность : 22 м.Вид битрейта : ПеременныйБитрейт : 5777 Кбит/секМаксимальный битрейт : 8000 Кбит/секШирина : 720 пикселейВысота : 576 пикселейСоотношение сторон : 16:9Частота кадров : 25,000 кадров/секСтандарт вещания : PALЦветовое пространство : YUVСубдискретизация насыщенности : 4:2:0Битовая глубина : 8 битТип развёртки : ПрогрессивнаяМетод сжатия : С потерямиБит/(Пиксели*Кадры) : 0.557Размер потока : 931 Мбайт (91%)

АудиоИдентификатор : 189 (0xBD)-128 (0x80)Формат : AC-3Формат/Информация : Audio Coding 3Расширение режима : CM (complete main)Параметр Endianness формата : BigРежим смешивания : DVD-VideoПродолжительность : 22 м.Вид битрейта : ПостоянныйБитрейт : 448 Кбит/секКаналы : 6 каналовРасположение каналов : Front: L C R, Side: L R, LFEЧастота : 48,0 КГцБитовая глубина : 16 битМетод сжатия : С потерямиЗадержка видео : -752 мс.Размер потока : 72,2 Мбайт (7%)

Скачать Любовь – это всё, что тебе нужно через торрент http://s43.radikal.ru/i099/1304/f6/235dd82ff283.jpg Скачать фильм Любовь – это всё, что тебе нужно через торрент бесплантно в хорошем качестве Описание: Филипп красив, богат и… одинок. Ида замужем, но ее супруг увлечен другой. Скоро они встретятся на свадьбе своих детей в одном из ... 2013-04-15 22:27 10 10 4

Loading...

Loading...

Рекламный пират

Дорогой пользователь! Огромная просьба, поблагодарите релизера, оцените раздачу и оставьте свои комментарий, если Вы скачали Любовь – это всё, что тебе нужно через торрент бесплатно! Внесите свою лепту в развитие PiratBit!

Комментировать посты могут только пользователи прошедшие не сложную регистрацию

Любовь – это всё, что тебе нужно через торрент Скачать бесплатно Любовь – это всё, что тебе нужно Любовь – это всё, что тебе нужно скачать торрент Любовь – это всё, что тебе нужно смотреть онлайн Cкачать фильм Любовь – это всё, что тебе нужно бесплатно Любовь – это всё, что тебе нужно скачать торрент в хорошем качестве Любовь – это всё, что тебе нужно смотреть онлайн бесплатно в хорошем качестве

Вы не можете начинать темыВы не можете отвечать на сообщенияВы не можете редактировать свои сообщенияВы не можете удалять свои сообщенияВы не можете голосовать в опросахВы не можете прикреплять файлы к сообщениямВы можете скачивать файлы

piratbit.ru

Любовь – это всё, что тебе нужно скачать через торрент » Торрент Кино

Любовь и лимоны------------------------------------------Фильм о том, что любви все возрасты покорны и о том, что любовь может настигнуть в любом возрасте, состоянии здоровья и духа. Что она не разборчива в выборе сословий, разницы в возрасте, сферах деятельности и даже полов своих счастливых избранников. События, разворачивающиеся на фоне подготовки свадьбы детей, катализируют чувства их родителей. Великолепные пейзажи итальянского побережья, красивого лимонного сада усиливают эффект, заставляя героев вспомнить молодость, танцы, романтические разговоры и красноречивые взгляды, и в тоже время забыть о бизнесе, обычных бытовых проблемах, словно погрузившись в новый мир как в воду.

Действию мешает отсутствие динамичности, но оно в данном случае оправдано. Трагичности, помимо проблем со здоровьем главной героини, добавляет конфликт отца с сыном, а назревающее непонимание жениха и невесты разбавляет романтическую идиллию нотками скандала. Отдельно хочется отметить замечательно подобранную музыку. Предсказуемый конец, но это же все таки романтическая комедия.

Мило, но не хватает глубины.------------------------------------------Датский для отдыхающих------------------------------------------В оригинале эта мелодрама называется довольно забавно и совсем не так, как у нас. И хотя история предлагается тут не самая весёлая, Пирс Броснан призван сделать всё, чтобы у зрителей возобладали исключительно романтические чувства...

Пока Ида, парикмахерша из Копенгагена, лечит рак груди, её муж заводит интрижку с молоденькой сотрудницей, без стеснения занимаясь с ней любовью в те самые часы, когда жена проходит очередной сеанс химиотерапии. Вернувшись однажды в квартиру чуть раньше срока, Ида как раз и видит ту самую мизансцену, о которой вы только что подумали. Новая пассия супруга спасается бегством, а сам муж, ничтоже сумняшись, так и говорит, что дошёл до жизни такой, исключительно переживая из-за болезни жены. Так Ида начинает понимать, что муж совсем потерял совесть. В таких расстроенных чувствах она и отправляется в Италию, в Сорренто, где вот-вот должна выйти замуж её дочка.

По ходу дела она знакомится с красивым и богатым британцем Филиппом, который приходится отцом дочкиному жениху. Он работает в Дании, недвижимость имеет в Италии, и влюбляется в Иду в тот момент, когда она выходит из моря без парика, и без ...волос, сильно походя на инопланетянку. Все дальнейшие перипетии сценария уже не дают мелодраматической сверхзадаче свернуть с намеченного курса. Думаю, не сложно догадаться, с какого именно...

Режиссёр Сюзанна Бир хоть и не живёт в Сочи, но, похоже, давно знает прикуп, так как последние 13 лет (начиная с ромкома «Один единственный») именно она считается главным хитмейкером датского кино. Датчане, любящие свое национальные кино, не в пример нам куда больше, чем голливудские баблостеры, каждый фильм Сюзанны неизменно делали если не кассовым чемпионом года, то, по меньшей мере, одним из главных фаворитов. А после того, как в позапрошлом году Бир удостоилась вдобавок ко всему иноязычного «Оскара» за фильм «Месть», каждый восьмой датчанин, надо полагать, уже чисто автоматически отправился смотреть в местные кинотеатры её новую картину.

Собственно «Лысая парикмахерша» (так в буквальном переводе с датского эта картина должна была называться) - это пример того, как продукт, предназначенный для супермаркета, пытаются сделать чем-то более оригинальным. Или наоборот: не лишенное иронии и авторских амбиций кино стремятся закамуфлировать под универсальный ширпотреб (у нас, например, некогда весьма активно производимый Аллой Суриковой).

Очень любопытно наблюдать, как не польстившаяся соблазнами Фабрики Грёз датчанка упорно, из кадра в кадр, надеется сохранить этот хрупкий баланс, снимая проголливудское кино не на английском, а на своём родном языке, от которого даже сами датчане не в большом восторге. Чтобы легче было преодолеть национальные границы, фильм ставился с расчётом на приглашённую англоязычную звезду. И бывший агент 007 ухитряется не перетянуть на себя одеяло, хотя страшно даже представить, как трудно ему было этого не сделать. Филипп наделен здесь таким количеством достоинств, что читателя утомило бы одно только их перечисление. Именно поэтому я лучше воздержусь.------------------------------------------Не верю!------------------------------------------Этот фильм представился мне неудачной коммерческой сделкой.

С одной Стороны - Пирс Броснан - мистер Бонд, между прочим! И давно уже большой и заслуженный голливудский артист, купившийся, по всей вероятности, на имя ОСКАРоносного европейского режиссера - Сюзанны Бир (за фильм «Месть» Оскар-2011), которая к тому же снимает добротное авторское кино, и даже имеет в своем послужном списке картину, снятую по правилам манифеста Триера&Винтерберга, «Догма-95» - «Открытые сердца». Почему бы не попробовать и не сняться у нее, сменить формат?

С другой Стороны, та самая смелая женщина-режиссер, которая решила в качестве тяжелой артиллерии выпустить на первый план красиво стареющего и все еще претендующего на амплуа героя-любовника, Пирса Броснана, который на фоне ее верных, но малоизвестных европейских актеров, выглядел бы «бомбой», эдакой приманкой для зрительской аудитории, которой ничего не скажут имена Паприки Стеэн или Трине Дюрхольм.

В итоге - не выиграла ни одна из Сторон, а что еще хуже - в абсолютном проигрыше остался зритель! Которого, к слову сказать, обманули еще в самом начале - переиначив название фильма, видимо посчитав его более благозвучным (что по сути верно) для российского проката, как: «Любовь - это всё, что тебе нужно». Оригинальное название картины «Лысый парикмахер»! Кто? Ну, скажите мне - кто? - пойдет на фильм «Лысый парикмахер»? Такое название в равной степени отпугнет как простого непритязательного зрителя, так и заядлого синефила! Это уже какой-то глум! Режиссерская, авторская выходка?

Пирс Броснан, на мой взгляд, переигрывал настолько, что от его заученных гримас и отточенных жестов высшей актерской школы - нежные, неиспорченные славой и восторгами публики европейские актеры выглядели жалко, словно кучка непрофессионалов из кружка клубной самодеятельности.

И что совсем печально, казалось, они заискивают перед ним даже в кадре! И это их подобострастие направлено было не на персонаж П. Броснана - богатого и одинокого плейбоя, а именно на актера Пирса Броснана, безусловно, Актера с большой буквы, не один раз сыгравшего Супергероя.

Сказать о молодых артистах, играющих заглавные роли - нечего, не проявили себя никак. Если уж мистеру Бонду не удалось вытянуть сценарий на уровень крепкой мелодрамы, то где уж им? Молодо-зелено!

Разве что - виды итальянского Сорренто оставили меня под неизгладимым впечатлением.

И в заключение, моё, не по Станиславскому, а просто по-женски: Не верю!

Ну, не верю я, что лысая женщина-парикмахер, (плюс-минус 40-летняя), ниже среднего социального и интеллектуального уровня, кроме того инвалид (на что сделан особый акцент в сторону драмы) - может увлечь богатого, красивого, одинокого, чувствительного и всемогущего Агента 007, Супергероя и просто синеглазого ирландца. Так не бывает! Ведь мужчины любят глазами - разве нет? Так, не обманывайте нас!

torrent-kino.org


Смотрите также