Скачать любовь с акцентом торрент бесплатно в хорошем качестве


Скачать фильм Любовь с акцентом (2012) через торрент

27 января 2016 11:08 Любовь с акцентом (2012) BDRip от HELLYWOOD .torrent   [Информация о файле (нажмите для просмотра)] Формат: AVIКачество: BDRip (источник: HDCLUB /Blu-Ray Disc/ 1080p)Видео: 720x304 (2.37:1), 23.976 fps, XviD build 65 ~1610 kbps avg, 0.30 bit/pixelАудио: 48 kHz, AC3 Dolby Digital, 3/2 (L,C,R,l,r) + LFE ch, ~384 kbps 1,44 Gb 16 3 27 января 2016 11:08 Любовь с акцентом (2012) BDRip от HQCLUB | Лицензия .torrent   [Информация о файле (нажмите для просмотра)] Субтитры: английскиеФормат: AVIКачество: BDRip (источник:Видео: 704x400 (1.76:1), 24,000 fps, XviD build 65 ~1613 kbps avg, 0.31 bit/pixelАудио: 48 kHz, AC3 Dolby Digital, 3/2 (L,C,R,l,r) + LFE ch, ~384 kbps avg 1,46 Gb 105 6 27 января 2016 11:08 Любовь с акцентом (2012) BDRip-AVC | iPad .torrent   [Информация о файле (нажмите для просмотра)] Перевод: Не требуетсяКодек: H.264/AVCФормат: MP4 (контейнер m4v)Качество: BDRip 576pВидео: 1024х436 (2.35:1), 24.000 fps, 3325 Кbps, 0.310 bit/pixelЗвук: Русский: 48 kHz, AAC, 2ch, 132 Kbps - ОригиналСубтитры: Отсутствуют 2,51 Gb 5 5 27 января 2016 11:08 Любовь с акцентом (2012) HDRip от Generalfilm | КПК | Лицензия .torrent   [Информация о файле (нажмите для просмотра)] Перевод: Не требуется [Лицензия]Кодек: AVCКачество: HDRip | КПКВидео: AVC, 640x272 (2.35), 24.000 fps, 400 Kbps (0.096 bit/pixel)Звук: AAC LC, 48.0 KHz, 2 ch, 128 Kbps, VBR 394,52 Mb 3 4 27 января 2016 11:08 Любовь с акцентом (2012) BDRip-AVC от ExKinoRay | Лицензия .torrent   [Информация о файле (нажмите для просмотра)] Кодек: H.264Качество: BDRip (AVC) (Blu-Ray (1080p))Видео: MPEG-4 AVC, 2625 Кбит/с, 1024x436, 24.000 кадр/сЗвук: AC3, 6 ch, 448 Кбит/сВидео: Идентификатор : 1 Формат : AVC Формат/Информация : Advanced Video Codec Профиль формата : [email protected] Параметр CABAC формата : Да Параметр ReFrames формата : 8 кадров Идентификатор кодека : V_MPEG4/ISO/AVC Продолжительность : 1 ч. 43 м. Битрейт : 2625 Кбит/сек Ширина : 1024 пикселя Высота : 436 пикселей Соотношение сторон : 2,35:1 Частота кадров : 24,000 кадра/сек Цветовое пространство : YUV Субдискретизация насыщенности : 4:2:0 Битовая глубина : 8 бит Тип развёртки : Прогрессивная Бит/(Пиксели*Кадры) : 0.245 Размер потока : 1,86 Гбайт (83%) Заголовок : Rip by Enigma-Vladislav71 Библиотека кодирования : x264 core 92 r1510 33d382a Настройки программы : cabac=1 / ref=8 / deblock=1:-2:-2 / analyse=0x3:0x133 / me=umh / subme=10 / psy=1 / psy_rd=1.00:0.00 / mixed_ref=1 / me_range=48 / chroma_me=1 / trellis=2 / 8x8dct=1 / cqm=0 / deadzone=21,11 / fast_pskip=0 / chroma_qp_offset=-2 / threads=3 / sliced_threads=0 / nr=0 / decimate=0 / interlaced=0 / constrained_intra=0 / bframes=8 / b_pyramid=2 / b_adapt=2 / b_bias=0 / direct=3 / wpredb=1 / wpredp=2 / keyint=240 / keyint_min=23 / scenecut=40 / intra_refresh=0 / rc=2pass / mbtree=0 / bitrate=2625 / ratetol=1.0 / qcomp=0.60 / qpmin=10 / qpmax=51 / qpstep=4 / cplxblur=20.0 / qblur=0.5 / ip_ratio=1.40 / pb_ratio=1.30 / aq=1:1.00 Default : Нет Forced : НетАудио: Идентификатор : 2 Формат : AC-3 Формат/Информация : Audio Coding 3 Расширение режима : CM (complete main) Идентификатор кодека : A_AC3 Продолжительность : 1 ч. 43 м. Вид битрейта : Постоянный Битрейт : 448 Кбит/сек Каналы : 6 каналов Расположение каналов : Front: L C R, Side: L R, LFE Частота : 48,0 КГц Битовая глубина : 16 бит Метод сжатия : С потерями Размер потока : 333 Мбайт (15%) Default : Да Forced : Нет 2,23 Gb 7 2 27 января 2016 11:07 Любовь с акцентом (2012) BDRip-AVC от potroks | Лицензия .torrent   [Информация о файле (нажмите для просмотра)] Перевод: ОригиналСубтитры: АнглийскиеКачество: BDRip-AVC [Blu-Ray Disc]Формат: MKVВидео: H.264, 768x328 (2,35:1), 24,000 fps, 1630 Kbps, 0.270 bit/pixelАудио: 48 kHz, AC3 Dolby Digital, 3/2 (L,C,R,l,r) + LFE ch, ~384.00 kbps avg 1,46 Gb 9 5 27 января 2016 11:07 Любовь с акцентом (2012) BDRip 720p | Лицензия .torrent   [Информация о файле (нажмите для просмотра)] Перевод: Не требуетсяФормат: MKVКачество: BDRip 720pВидео: MPEG-4 AVC, 6700 Кбит/с, 1280x544, 24 кадр/cЗвук: Русский (DTS, 6 ch, 768 Кбит/с)Субтитры: Английскиеx264logx264 [info]: frame I:1131 Avg QP:16.42 size:152363 x264 [info]: frame P:34577 Avg QP:18.69 size: 57076 x264 [info]: frame B:113807 Avg QP:20.85 size: 26787Media InfoGeneral Unique ID : 227285220170324626479022521848753273871 (0xAAFD8A886E42E2B788EE2B53F5FBBC0F) Complete name : Lubov.s.akcentom.2012.720p.Bluray.Rus.HDCLUB.mkv Format : Matroska Format version : Version 2 File size : 5.39 GiB Duration : 1h 43mn Overall bit rate : 7 427 Kbps Movie name : HDCLUB present "Lubov s akcentom (2012)" Encoded date : UTC 2012-12-05 02:40:33 Writing application : mkvmerge v5.8.0 ('No Sleep / Pillow') built on Sep 2 2012 15:37:04 Writing library : libebml v1.2.3 + libmatroska v1.3.0 5,39 Gb 21 4 27 января 2016 11:07 Любовь с акцентом (2012) HDRip | Лицензия .torrent   [Информация о файле (нажмите для просмотра)] Перевод: Не требуетсяКодек: XviDКачество: HDRipВидео: 720x304, 24 fps, 810 KbpsЗвук: MP3, 48 kHz, 2 ch, 128 Kbps 703,58 Mb 12 2 27 января 2016 11:07 Любовь с акцентом (2012) DVDRip от Scarabey | Лицензия .torrent   [Информация о файле (нажмите для просмотра)] Видео: 704x304 (2.32:1), 25 fps, XviD build 50 ~1631 kbps avg, 0.30 bit/pixelАудио: 48 kHz, AC3 Dolby Digital, 3/2 (L,C,R,l,r) + LFE ch, ~448.00 kbps avg 1,45 Gb 7 3 27 января 2016 11:07 Любовь с акцентом (2012) DVDRip от Scarabey | Лицензия .torrent   [Информация о файле (нажмите для просмотра)] Видео: 656x288 (2.28:1), 25 fps, XviD build 50 ~905 kbps avg, 0.19 bit/pixelАудио: 48 kHz, MPEG Layer 3, 2 ch, ~128.00 kbps avg 743,68 Mb 5 5 27 января 2016 11:07 Любовь с акцентом (2012) DVDRip-AVC .torrent   [Информация о файле (нажмите для просмотра)] Перевод: Не требуетсяКачество: DVDRip-AVCВидео: 720 x x 446, 25.000 fps, 1633 Кбит/секЗвук: AC-3, 6 каналов, 48,0 КГц, 448 Кбит/сек 1,45 Gb 54 4 27 января 2016 11:07 Любовь с акцентом (2012) DVD5 от NNM-Club .torrent   [Информация о файле (нажмите для просмотра)] Перевод: Не требуется [Русский язык]Субтитры: Вшитые отключаемыеВидео: (PAL 16:9), ~5900 kbps, Bit/Pixel: 0.573Аудио: AC3 5.1, 448 kbps [Русский]Видео: Идентификатор : 224 (0xE0) Формат : MPEG Video Версия формата : Version 2 Профиль формата : [email protected] Параметр BVOP формата : Да Параметр матрицы формата : Выборочная Параметр GOP формата : M=3, N=12 Продолжительность : 21 м. Вид битрейта : Переменный Битрейт : 5936 Кбит/сек Максимальный битрейт : 8003 Кбит/сек Ширина : 720 пикселей Высота : 576 пикселей Соотношение сторон : 16:9 Частота кадров : 25,000 кадров/сек Стандарт вещания : PAL Цветовое пространство : YUV Субдискретизация насыщенности : 4:2:0 Битовая глубина : 8 бит Тип развёртки : Прогрессивная Порядок развёртки : Нижнее поле первое Метод сжатия : С потерями Бит/(Пиксели*Кадры) : 0.573 Размер потока : 933 Мбайт (91%)Аудио: Идентификатор : 189 (0xBD)-128 (0x80) Формат : AC-3 Формат/Информация : Audio Coding 3 Расширение режима : CM (complete main) Параметр Endianness формата : Big Режим смешивания : DVD-Video Продолжительность : 21 м. Вид битрейта : Постоянный Битрейт : 448 Кбит/сек Каналы : 6 каналов Расположение каналов : Front: L C R, Side: L R, LFE Частота : 48,0 КГц Битовая глубина : 16 бит Метод сжатия : С потерями Задержка видео : -392 мс. Размер потока : 70,4 Мбайт (7%) 4,37 Gb 4 4 27 января 2016 11:07 Любовь с акцентом (2012) DVD9 .torrent   [Информация о файле (нажмите для просмотра)] Перевод: Не требуетсяКодек: MPEG2Качество: DVD9Видео: PAL 16:9 (720x576(0.678)) MPEG Video, 25,000 кадр/сек, 7030 Кбит/секАудио #1: Russian (Dolby AC3, 6 ch) 448 Кбит/сек, 48,0 КГцАудио #2: Russian (DTS, 5 ch) 1536 Кбит/сек, 48,0 КГц 6,41 Gb 4 5

gig-torrent.net

Любовь с акцентом скачать торрент в хорошем качестве бесплатно

DVDRipПодробнееРусский фильмAVI1.46 ГБскачатьФормат: AVIВидео кодек: XviDАудио кодек: AC3Видео:   1634 kb/s, 720x304Аудио:   AC3, 448 kb/s (6 ch)DVDRipПодробнееРусский фильмAVI700.14 МБскачатьФормат: AVIВидео кодек: XviDАудио кодек: MP3Видео:   844 kb/s, 640x272Аудио:   MP3, 128 kb/s (2 ch)DVD5ПодробнееРусский фильмDVD Video4.37 ГБскачатьФормат: DVD VideoВидео кодек: MPEG2Аудио кодек: AC3Видео:   [email protected] (PAL 16:9), ~5900 kbps, Bit/Pixel: 0.573Аудио:   5.1, 448 kbpsDVD9ПодробнееРусский фильмDVD Video6.41 ГБскачатьФормат: DVD VideoВидео кодек: MPEG2Аудио кодек: DTSВидео:   PAL 16:9 (720x576(0.678)) MPEG Video, 25,000 кадр/сек, 7030 Кбит/секАудио:   Аудио 1: Russian (Dolby AC3, 6 ch) 448 Кбит/сек, 48,0 КГц Аудио 2: Russian (DTS, 5 ch) 1536 Кбит/сек, 48,0 КГцDVDRipПодробнееРусский фильмAVI1.45 ГБскачатьФормат: AVIВидео кодек: XviDАудио кодек: AC3Видео:   720 x [email protected] x 446, 25.000 fps, 1633 Кбит/секАудио:   AC-3, 6 каналов, 48,0 КГц, 448 Кбит/секDVDRipПодробнееРусский фильмAVI1.45 ГБскачатьФормат: AVIВидео кодек: XviDАудио кодек: AC3Видео:   704x304 (2.32:1), 25 fps, XviD build 50 ~1631 kbps avg, 0.30 bit/pixelАудио:   48 kHz, AC3 Dolby Digital, 3/2 (L,C,R,l,r) + LFE ch, ~448.00 kbps avgDVDRipПодробнееРусский фильмAVI743.68 МБскачатьФормат: AVIВидео кодек: XviDАудио кодек: MPEG AudioВидео:   656x288 (2.28:1), 25 fps, XviD build 50 ~905 kbps avg, 0.19 bit/pixelАудио:   48 kHz, MPEG Layer 3, 2 ch, ~128.00 kbps avgBDRipПодробнееРусский фильмAVI703.58 МБскачатьФормат: AVIВидео кодек: XviDАудио кодек: MP3Видео:   720x304, 24 fps, 810 KbpsАудио:   MP3, 48 kHz, 2 ch, 128 KbpsBDRip (hd)ПодробнееРусский фильмMKV5.39 ГБскачатьФормат: MKVВидео кодек: H.26xАудио кодек: DTSВидео:   MPEG-4 AVC, 6700 Кбит/с, 1280x544, 24 кадр/cАудио:   Русский (DTS, 6 ch, 768 Кбит/с)BDRipПодробнееРусский фильмMKV2.23 ГБскачатьФормат: MKVВидео кодек: H.26xАудио кодек: AC3Видео:   MPEG-4 AVC, 2625 Кбит/с, 1024x436, 24.000 кадр/сАудио:   AC3, 6 ch, 448 Кбит/сBDRipПодробнееРусский фильмMKV1.46 ГБскачатьФормат: MKVВидео кодек: H.26xАудио кодек: AC3Видео:   H.264, 768x328 (2,35:1), 24,000 fps, 1630 Kbps, 0.270 bit/pixelАудио:   48 kHz, AC3 Dolby Digital, 3/2 (L,C,R,l,r) + LFE ch, ~384.00 kbps avgBDRip (hd)ПодробнееРусский фильмMKV2.17 ГБскачатьФормат: MKVВидео кодек: H.26xАудио кодек: AC3Видео:   1280x544, 2631 Кбит/сек, 24,000 кадр/сек, AVC, x264, 2,35:1, 0.157 Бит/[Пиксели*Кадры], 2passАудио:   AC-3, 384 Кбит/сек, 6 канала(ов), 48,0 КГцBDRip (hd)ПодробнееРусский фильмMKV4.37 ГБскачатьФормат: MKVВидео кодек: H.26xАудио кодек: AC3Видео:   1920x816, 5637 Кбит/сек, 24,000 кадр/сек, AVC, x264, 2,35:1, 0.150 Бит/[Пиксели*Кадры], 2passАудио:   AC-3, 384 Кбит/сек, 6 канала(ов), 48,0 КГцKPKПодробнееРусский фильмMKV394.52 МБскачатьФормат: MKVВидео кодек: AVCАудио кодек: AACВидео:   AVC, 640x272 (2.35), 24.000 fps, 400 Kbps (0.096 bit/pixel)Аудио:   AAC LC, 48.0 KHz, 2 ch, 128 Kbps, VBRKPKПодробнееРусский фильмMKV2.51 ГБскачатьФормат: MKVВидео кодек: H.26xАудио кодек: AACВидео:   1024х436 (2.35:1), 24.000 fps, 3325 Кbps, 0.310 bit/pixelАудио:   Русский: 48 kHz, AAC, 2ch, 132 Kbps - ОригиналBDRipПодробнееРусский фильмAVI1.46 ГБскачатьФормат: AVIВидео кодек: XviDАудио кодек: AC3Видео:   704x400 (1.76:1), 24,000 fps, XviD build 65 ~1613 kbps avg, 0.31 bit/pixelАудио:   48 kHz, AC3 Dolby Digital, 3/2 (L,C,R,l,r) + LFE ch, ~384 kbps avgBDRipПодробнееРусский фильмAVI1.44 ГБскачатьФормат: AVIВидео кодек: XviDАудио кодек: AC3Видео:   720x304 (2.37:1), 23.976 fps, XviD build 65 ~1610 kbps avg, 0.30 bit/pixelАудио:   48 kHz, AC3 Dolby Digital, 3/2 (L,C,R,l,r) + LFE ch, ~384 kbps

torrentskino.info

Скачать фильм Любовь с акцентом через торрент в хорошем качестве бесплатно BDRip-AVC

GeneralUnique ID : 223414934051897808251258888347691125340 (0xA81426B1DB6F1C3CAFC9C2C541AA0A5C)Complete name : Ljubov'.s.Akcentom.2012.O.BDRip.x264.potroks.mkvFormat : MatroskaFormat version : Version 2File size : 1.46 GiBDuration : 1h 43mnOverall bit rate : 2 014 KbpsMovie name : -=POTROKS=-Encoded date : UTC 2012-12-06 03:44:09Writing application : mkvmerge v5.7.0 ('The Whirlwind') built on Jul 8 2012 20:08:51Writing library : libebml v1.2.3 + libmatroska v1.3.0

VideoID : 1Format : AVCFormat/Info : Advanced Video CodecFormat profile : [email protected] settings, CABAC : YesFormat settings, ReFrames : 9 framesCodec ID : V_MPEG4/ISO/AVCDuration : 1h 43mnBit rate : 1 630 KbpsWidth : 768 pixelsHeight : 328 pixelsDisplay aspect ratio : 2.35:1Original display aspect ratio : 2.35:1Frame rate mode : ConstantFrame rate : 24.000 fpsColor space : YUVChroma subsampling : 4:2:0Bit depth : 8 bitsScan type : ProgressiveBits/(Pixel*Frame) : 0.270Stream size : 1.15 GiB (79%)Title : Любовь с акцентомWriting library : x264 core 128 r2216M 198a7eaEncoding settings : cabac=1 / ref=10 / deblock=1:-2:-2 / analyse=0x3:0x133 / me=umh / subme=9 / psy=1 / psy_rd=1.10:0.00 / mixed_ref=1 / me_range=32 / chroma_me=1 / trellis=2 / 8x8dct=1 / cqm=0 / deadzone=21,11 / fast_pskip=0 / chroma_qp_offset=-2 / threads=4 / lookahead_threads=1 / sliced_threads=0 / nr=0 / decimate=1 / interlaced=0 / bluray_compat=0 / constrained_intra=0 / bframes=11 / b_pyramid=1 / b_adapt=2 / b_bias=0 / direct=3 / weightb=1 / open_gop=0 / weightp=2 / keyint=240 / keyint_min=24 / scenecut=40 / intra_refresh=0 / rc_lookahead=240 / rc=2pass / mbtree=1 / bitrate=1630 / ratetol=1.0 / qcomp=0.70 / qpmin=0 / qpmax=69 / qpstep=4 / cplxblur=20.0 / qblur=0.5 / vbv_maxrate=20000 / vbv_bufsize=20000 / nal_hrd=none / ip_ratio=1.35 / aq=2:0.90Language : RussianDefault : YesForced : No

AudioID : 2Format : AC-3Format/Info : Audio Coding 3Mode extension : CM (complete main)Format settings, Endianness : BigCodec ID : A_AC3Duration : 1h 43mnBit rate mode : ConstantBit rate : 384 KbpsChannel(s) : 6 channelsChannel positions : Front: L C R, Side: L R, LFESampling rate : 48.0 KHzBit depth : 16 bitsCompression mode : LossyDelay relative to video : 59msStream size : 285 MiB (19%)Title : DD 5.1 @ 384 kbpsLanguage : RussianDefault : YesForced : No

TextID : 3Format : UTF-8Codec ID : S_TEXT/UTF8Codec ID/Info : UTF-8 Plain TextLanguage : EnglishDefault : NoForced : No

Menu00:00:00.000 : ru:Chapter 100:00:31.000 : ru:Chapter 200:09:32.166 : ru:Chapter 300:21:17.375 : ru:Chapter 400:31:37.000 : ru:Chapter 500:40:41.000 : ru:Chapter 600:56:51.000 : ru:Chapter 701:15:34.000 : ru:Chapter 801:35:09.000 : ru:Chapter 9

piratbit.ru

Любовь с акцентом скачать торрент в хорошем качестве бесплатно

DVDRipПодробнееРусский фильмAVI1.46 ГБскачатьФормат: AVIВидео кодек: XviDАудио кодек: AC3Видео:   1634 kb/s, 720x304Аудио:   AC3, 448 kb/s (6 ch)DVDRipПодробнееРусский фильмAVI700.14 МБскачатьФормат: AVIВидео кодек: XviDАудио кодек: MP3Видео:   844 kb/s, 640x272Аудио:   MP3, 128 kb/s (2 ch)DVD5ПодробнееРусский фильмDVD Video4.37 ГБскачатьФормат: DVD VideoВидео кодек: MPEG2Аудио кодек: AC3Видео:   [email protected] (PAL 16:9), ~5900 kbps, Bit/Pixel: 0.573Аудио:   5.1, 448 kbpsDVD9ПодробнееРусский фильмDVD Video6.41 ГБскачатьФормат: DVD VideoВидео кодек: MPEG2Аудио кодек: DTSВидео:   PAL 16:9 (720x576(0.678)) MPEG Video, 25,000 кадр/сек, 7030 Кбит/секАудио:   Аудио 1: Russian (Dolby AC3, 6 ch) 448 Кбит/сек, 48,0 КГц Аудио 2: Russian (DTS, 5 ch) 1536 Кбит/сек, 48,0 КГцDVDRipПодробнееРусский фильмAVI1.45 ГБскачатьФормат: AVIВидео кодек: XviDАудио кодек: AC3Видео:   720 x [email protected] x 446, 25.000 fps, 1633 Кбит/секАудио:   AC-3, 6 каналов, 48,0 КГц, 448 Кбит/секDVDRipПодробнееРусский фильмAVI1.45 ГБскачатьФормат: AVIВидео кодек: XviDАудио кодек: AC3Видео:   704x304 (2.32:1), 25 fps, XviD build 50 ~1631 kbps avg, 0.30 bit/pixelАудио:   48 kHz, AC3 Dolby Digital, 3/2 (L,C,R,l,r) + LFE ch, ~448.00 kbps avgDVDRipПодробнееРусский фильмAVI743.68 МБскачатьФормат: AVIВидео кодек: XviDАудио кодек: MPEG AudioВидео:   656x288 (2.28:1), 25 fps, XviD build 50 ~905 kbps avg, 0.19 bit/pixelАудио:   48 kHz, MPEG Layer 3, 2 ch, ~128.00 kbps avgBDRipПодробнееРусский фильмAVI703.58 МБскачатьФормат: AVIВидео кодек: XviDАудио кодек: MP3Видео:   720x304, 24 fps, 810 KbpsАудио:   MP3, 48 kHz, 2 ch, 128 KbpsBDRip (hd)ПодробнееРусский фильмMKV5.39 ГБскачатьФормат: MKVВидео кодек: H.26xАудио кодек: DTSВидео:   MPEG-4 AVC, 6700 Кбит/с, 1280x544, 24 кадр/cАудио:   Русский (DTS, 6 ch, 768 Кбит/с)BDRipПодробнееРусский фильмMKV2.23 ГБскачатьФормат: MKVВидео кодек: H.26xАудио кодек: AC3Видео:   MPEG-4 AVC, 2625 Кбит/с, 1024x436, 24.000 кадр/сАудио:   AC3, 6 ch, 448 Кбит/сBDRipПодробнееРусский фильмMKV1.46 ГБскачатьФормат: MKVВидео кодек: H.26xАудио кодек: AC3Видео:   H.264, 768x328 (2,35:1), 24,000 fps, 1630 Kbps, 0.270 bit/pixelАудио:   48 kHz, AC3 Dolby Digital, 3/2 (L,C,R,l,r) + LFE ch, ~384.00 kbps avgBDRip (hd)ПодробнееРусский фильмMKV2.17 ГБскачатьФормат: MKVВидео кодек: H.26xАудио кодек: AC3Видео:   1280x544, 2631 Кбит/сек, 24,000 кадр/сек, AVC, x264, 2,35:1, 0.157 Бит/[Пиксели*Кадры], 2passАудио:   AC-3, 384 Кбит/сек, 6 канала(ов), 48,0 КГцBDRip (hd)ПодробнееРусский фильмMKV4.37 ГБскачатьФормат: MKVВидео кодек: H.26xАудио кодек: AC3Видео:   1920x816, 5637 Кбит/сек, 24,000 кадр/сек, AVC, x264, 2,35:1, 0.150 Бит/[Пиксели*Кадры], 2passАудио:   AC-3, 384 Кбит/сек, 6 канала(ов), 48,0 КГцKPKПодробнееРусский фильмMKV394.52 МБскачатьФормат: MKVВидео кодек: AVCАудио кодек: AACВидео:   AVC, 640x272 (2.35), 24.000 fps, 400 Kbps (0.096 bit/pixel)Аудио:   AAC LC, 48.0 KHz, 2 ch, 128 Kbps, VBRKPKПодробнееРусский фильмMKV2.51 ГБскачатьФормат: MKVВидео кодек: H.26xАудио кодек: AACВидео:   1024х436 (2.35:1), 24.000 fps, 3325 Кbps, 0.310 bit/pixelАудио:   Русский: 48 kHz, AAC, 2ch, 132 Kbps - ОригиналBDRipПодробнееРусский фильмAVI1.46 ГБскачатьФормат: AVIВидео кодек: XviDАудио кодек: AC3Видео:   704x400 (1.76:1), 24,000 fps, XviD build 65 ~1613 kbps avg, 0.31 bit/pixelАудио:   48 kHz, AC3 Dolby Digital, 3/2 (L,C,R,l,r) + LFE ch, ~384 kbps avgBDRipПодробнееРусский фильмAVI1.44 ГБскачатьФормат: AVIВидео кодек: XviDАудио кодек: AC3Видео:   720x304 (2.37:1), 23.976 fps, XviD build 65 ~1610 kbps avg, 0.30 bit/pixelАудио:   48 kHz, AC3 Dolby Digital, 3/2 (L,C,R,l,r) + LFE ch, ~384 kbps

torrentut.info

Скачать фильм Любовь с акцентом через торрент в хорошем качестве бесплатно DVD9

ОбщееПолное имя : J:Новинки 2012Lyubov.s.akcentom.2012.DVD9VIDEO_TSVTS_03_2.VOBФормат : MPEG-PSРазмер файла : 1024 МбайтПродолжительность : 15 м.Режим общего битрейта : ПеременныйОбщий поток : 9171 Кбит/сек

ВидеоИдентификатор : 224 (0xE0)Формат : MPEG VideoВерсия формата : Version 2Профиль формата : [email protected]Параметр BVOP формата : ДаПараметр матрицы формата : По умолчаниюПараметр GOP формата : M=3, N=12Продолжительность : 15 м.Вид битрейта : ПеременныйБитрейт : 7030 Кбит/секМаксимальный битрейт : 8000 Кбит/секШирина : 720 пикселейВысота : 576 пикселейСоотношение сторон : 16:9Частота кадров : 25,000 кадров/секСтандарт вещания : PALЦветовое пространство : YUVСубдискретизация насыщенности : 4:2:0Битовая глубина : 8 битТип развёртки : ПрогрессивнаяМетод сжатия : С потерямиБит/(Пиксели*Кадры) : 0.678Размер потока : 785 Мбайт (77%)

Аудио #1Идентификатор : 189 (0xBD)-128 (0x80)Формат : AC-3Формат/Информация : Audio Coding 3Расширение режима : CM (complete main)Параметр Endianness формата : BigРежим смешивания : DVD-VideoПродолжительность : 15 м.Вид битрейта : ПостоянныйБитрейт : 448 Кбит/секКаналы : 6 каналовРасположение каналов : Front: L C R, Side: L R, LFEЧастота : 48,0 КГцБитовая глубина : 16 битМетод сжатия : С потерямиЗадержка видео : -512 мс.Размер потока : 50,0 Мбайт (5%)

Аудио #2Идентификатор : 189 (0xBD)-137 (0x89)Формат : DTSФормат/Информация : Digital Theater SystemsРежим : 16Параметр Endianness формата : BigРежим смешивания : DVD-VideoПродолжительность : 15 м.Вид битрейта : ПостоянныйБитрейт : 1510 Кбит/секКаналы : 6 каналовРасположение каналов : Front: L C R, Side: L R, LFEЧастота : 48,0 КГцБитовая глубина : 16 битМетод сжатия : С потерямиЗадержка видео : -555 мс.Размер потока : 169 Мбайт (16%)

Текст #1Идентификатор : 189 (0xBD)-33 (0x21)Формат : RLEФормат/Информация : Run-length encodingРежим смешивания : DVD-VideoЗадержка видео : 1 с. 860 мс.

Текст #2Идентификатор : 189 (0xBD)-34 (0x22)Формат : RLEФормат/Информация : Run-length encodingРежим смешивания : DVD-VideoЗадержка видео : 1 с. 860 мс.

piratbit.ru


Смотрите также