Скачать любовь во время холеры торрент


Любовь во время холеры через торрент

ОбщееУникальный идентификатор : 196492439973632133654337552579288694907 (0x93D3114111240CA4A88F4F59981D007B)Полное имя : D:\Video\Любовь во время холеры.2007.BDRip.720p by msltel.mkvФормат : MatroskaВерсия формата : Version 4 / Version 2Размер файла : 6,26 ГбайтПродолжительность : 2 ч. 12 м.Общий поток : 6753 Кбит/секНазвание фильма : Rip by msltelДата кодирования : UTC 2017-09-05 04:35:20Программа кодирования : mkvmerge v8.2.0 ('World of Adventure') 64bitБиблиотека кодирования : libebml v1.3.1 + libmatroska v1.4.2

ВидеоИдентификатор : 1Формат : AVCФормат/Информация : Advanced Video CodecПрофиль формата : [email protected]Параметр CABAC формата : ДаПараметр RefFrames формата : 9 кадровИдентификатор кодека : V_MPEG4/ISO/AVCПродолжительность : 2 ч. 12 м.Битрейт : 5664 Кбит/секШирина : 1280 пикселейВысота : 720 пикселейСоотношение сторон : 16:9Режим частоты кадров : ПостоянныйЧастота кадров : 25,000 кадров/секЦветовое пространство : YUVСубдискретизация насыщенности : 4:2:0Битовая глубина : 8 битТип развёртки : ПрогрессивнаяБит/(Пиксели*Кадры) : 0.246Размер потока : 5,25 Гбайт (84%)Библиотека кодирования : x264 core 146 r2538 121396cНастройки программы : cabac=1 / ref=9 / deblock=1:-3:-2 / analyse=0x3:0x113 / me=umh / subme=11 / psy=1 / psy_rd=1.00:0.15 / mixed_ref=1 / me_range=32 / chroma_me=1 / trellis=2 / 8x8dct=1 / cqm=0 / deadzone=21,11 / fast_pskip=0 / chroma_qp_offset=-3 / threads=6 / lookahead_threads=1 / sliced_threads=0 / nr=0 / decimate=1 / interlaced=0 / bluray_compat=0 / constrained_intra=0 / bframes=8 / b_pyramid=2 / b_adapt=2 / b_bias=0 / direct=1 / weightb=1 / open_gop=0 / weightp=2 / keyint=250 / keyint_min=25 / scenecut=40 / intra_refresh=0 / rc_lookahead=40 / rc=crf / mbtree=0 / crf=17.5 / qcomp=0.60 / qpmin=0 / qpmax=69 / qpstep=4 / vbv_maxrate=62500 / vbv_bufsize=78125 / crf_max=0.0 / nal_hrd=none / filler=0 / ip_ratio=1.40 / pb_ratio=1.30 / aq=1:1.00Язык : EnglishDefault : ДаForced : Нет

Аудио #1Идентификатор : 2Формат : AC-3Формат/Информация : Audio Coding 3Параметр Endianness формата : BigИдентификатор кодека : A_AC3Продолжительность : 2 ч. 12 м.Вид битрейта : ПостоянныйБитрейт : 448 Кбит/секКаналы : 6 каналовРасположение каналов : Front: L C R, Side: L R, LFEЧастота : 48,0 КГцЧастота кадров : 31,250 кадров/сек (1536 SPF)Битовая глубина : 16 битМетод сжатия : С потерямиРазмер потока : 425 Мбайт (7%)Заголовок : DUBЯзык : RussianServiceKind/String : Complete MainDefault : ДаForced : Нет

Аудио #2Идентификатор : 3Формат : AC-3Формат/Информация : Audio Coding 3Параметр Endianness формата : BigИдентификатор кодека : A_AC3Продолжительность : 2 ч. 12 м.Вид битрейта : ПостоянныйБитрейт : 640 Кбит/секКаналы : 6 каналовРасположение каналов : Front: L C R, Side: L R, LFEЧастота : 48,0 КГцЧастота кадров : 31,250 кадров/сек (1536 SPF)Битовая глубина : 16 битМетод сжатия : С потерямиРазмер потока : 607 Мбайт (9%)Заголовок : originalЯзык : EnglishServiceKind/String : Complete MainDefault : НетForced : Нет

ТекстИдентификатор : 4Формат : UTF-8Идентификатор кодека : S_TEXT/UTF8Идентификатор кодека/Информация : UTF-8 Plain TextПродолжительность : 2 ч. 2 м.Битрейт : 53 бит/секElementCount : 1284Размер потока : 48,3 Кбайт (0%)Заголовок : русскиеЯзык : RussianDefault : НетForced : Нет

Меню00:00:00.000 : :Chapter 0100:10:50.159 : :Chapter 0200:22:37.359 : :Chapter 0300:35:03.000 : :Chapter 0400:44:13.800 : :Chapter 0500:57:01.239 : :Chapter 0601:08:54.600 : :Chapter 0701:22:58.238 : :Chapter 0801:33:06.158 : :Chapter 0901:44:22.198 : :Chapter 1001:56:55.439 : :Chapter 1102:03:27.319 : :Chapter 12

piratbit.ru

Любовь во время холеры через торрент

ОбщееУникальный идентификатор : 220483261328323198445069608453039726760 (0xA5DF8811E173A95D92A42D25B86020A8)Полное имя : D:\Video\Любовь во время холеры.2007.BDRip.1080p by msltel.mkvФормат : MatroskaВерсия формата : Version 4 / Version 2Размер файла : 15,9 ГбайтПродолжительность : 2 ч. 12 м.Общий поток : 17,1 Мбит/секНазвание фильма : Rip by msltelДата кодирования : UTC 2017-09-06 06:32:16Программа кодирования : mkvmerge v8.2.0 ('World of Adventure') 64bitБиблиотека кодирования : libebml v1.3.1 + libmatroska v1.4.2

ВидеоИдентификатор : 1Формат : AVCФормат/Информация : Advanced Video CodecПрофиль формата : [email protected]Параметр CABAC формата : ДаПараметр RefFrames формата : 4 кадраИдентификатор кодека : V_MPEG4/ISO/AVCПродолжительность : 2 ч. 12 м.Битрейт : 15,7 Мбит/секШирина : 1920 пикселейВысота : 1080 пикселейСоотношение сторон : 16:9Режим частоты кадров : ПостоянныйЧастота кадров : 25,000 кадров/секЦветовое пространство : YUVСубдискретизация насыщенности : 4:2:0Битовая глубина : 8 битТип развёртки : ПрогрессивнаяБит/(Пиксели*Кадры) : 0.303Размер потока : 14,6 Гбайт (92%)Библиотека кодирования : x264 core 146 r2538 121396cНастройки программы : cabac=1 / ref=4 / deblock=1:-3:-2 / analyse=0x3:0x113 / me=umh / subme=11 / psy=1 / psy_rd=1.00:0.15 / mixed_ref=1 / me_range=32 / chroma_me=1 / trellis=2 / 8x8dct=1 / cqm=0 / deadzone=21,11 / fast_pskip=0 / chroma_qp_offset=-3 / threads=6 / lookahead_threads=1 / sliced_threads=0 / nr=0 / decimate=1 / interlaced=0 / bluray_compat=0 / constrained_intra=0 / bframes=8 / b_pyramid=2 / b_adapt=2 / b_bias=0 / direct=1 / weightb=1 / open_gop=0 / weightp=2 / keyint=250 / keyint_min=25 / scenecut=40 / intra_refresh=0 / rc_lookahead=40 / rc=crf / mbtree=0 / crf=17.2 / qcomp=0.60 / qpmin=0 / qpmax=69 / qpstep=4 / vbv_maxrate=62500 / vbv_bufsize=78125 / crf_max=0.0 / nal_hrd=none / filler=0 / ip_ratio=1.40 / pb_ratio=1.30 / aq=1:1.00Язык : EnglishDefault : ДаForced : Нет

Аудио #1Идентификатор : 2Формат : DTSФормат/Информация : Digital Theater SystemsРежим : 16Параметр Endianness формата : BigИдентификатор кодека : A_DTSПродолжительность : 2 ч. 12 м.Вид битрейта : ПостоянныйБитрейт : 755 Кбит/секКаналы : 6 каналовРасположение каналов : Front: L C R, Side: L R, LFEЧастота : 48,0 КГцЧастота кадров : 93,750 кадра/сек (512 SPF)Битовая глубина : 24 битМетод сжатия : С потерямиРазмер потока : 715 Мбайт (4%)Заголовок : DUBЯзык : RussianDefault : ДаForced : Нет

Аудио #2Идентификатор : 3Формат : AC-3Формат/Информация : Audio Coding 3Параметр Endianness формата : BigИдентификатор кодека : A_AC3Продолжительность : 2 ч. 12 м.Вид битрейта : ПостоянныйБитрейт : 640 Кбит/секКаналы : 6 каналовРасположение каналов : Front: L C R, Side: L R, LFEЧастота : 48,0 КГцЧастота кадров : 31,250 кадров/сек (1536 SPF)Битовая глубина : 16 битМетод сжатия : С потерямиРазмер потока : 607 Мбайт (4%)Заголовок : originalЯзык : EnglishServiceKind/String : Complete MainDefault : НетForced : Нет

ТекстИдентификатор : 4Формат : UTF-8Идентификатор кодека : S_TEXT/UTF8Идентификатор кодека/Информация : UTF-8 Plain TextПродолжительность : 2 ч. 2 м.Битрейт : 53 бит/секElementCount : 1284Размер потока : 48,3 Кбайт (0%)Заголовок : русскиеЯзык : RussianDefault : НетForced : Нет

Меню00:00:00.000 : :Chapter 0100:10:50.159 : :Chapter 0200:22:37.359 : :Chapter 0300:35:03.000 : :Chapter 0400:44:13.800 : :Chapter 0500:57:01.239 : :Chapter 0601:08:54.600 : :Chapter 0701:22:58.238 : :Chapter 0801:33:06.158 : :Chapter 0901:44:22.198 : :Chapter 1001:56:55.439 : :Chapter 1102:03:27.319 : :Chapter 12

piratbit.ru

rutor.org :: Любовь во время холеры / Love in the Time of Cholera (2007) HDRip

Любовь во время холеры / Love in the Time of Cholera

Страна: США Производство: New Line Cinema, Grosvenor Park Media, Stone Village ProductionsГод выпуска: 2007Жанр: драма, мелодрамаПродолжительность: 02:12:41

Режиссер: Майк НьюэллАвторы сценария: Рональд Харвуд, Габриэль Гарсия Маркес

В ролях: Хавьер Бардем, Джованна Меццоджорно, Бенджамин Брэтт, Лив Шрайбер, Джон Легуизамо, Гектор Элизондо, Джина Бернард Форбс

Описание: Прекрасный, но бедный юноша Флорентино Ариза признаётся Фермине Дазе в вечной любви, однако девушка выходит замуж за более состоятельного поклонника. Но Флорентино не отступается от своей любви. Он верит. Верит и ждёт. Проходит путь от посыльного до преуспевающего судового магната, добивается богатства, славы и признания в надежде когда-нибудь заполучить свою Фермину. Проходит больше полувека. Роковая случайность и…влюблённые снова готовы кинуться в объятия друг друга...

Перевод: Профессиональный (полное дублирование) | ЛицензияСубтитры: нет

Качество: HDRipФормат: AVIВидео кодек: XviDАудио кодек: AC3Видео: 704x384 (1.85:1), 25.000 fps, XviD ~1 180 kbps avgАудио: 48.0 kHz, AC3 Dolby Digital, 3/2 (L,C,R,l,r) + LFE ch, ~384 kbps

Бюджет: $45 000 000Дата премьеры (мир): 4 октября 2007Дата премьеры (РФ): 6 марта 2008, «Парадиз»

Media Info

General Complete name : Love in the Time of Cholera.avi Format : AVI Format/Info : Audio Video Interleave File size : 1.46 GiB Duration : 2h 12mn Overall bit rate : 1 573 Kbps Movie name : Love in the Time of Cholera 2007 Genre : Drama Writing application : VirtualDubMod 1.5.10.2 (build 2540/release) Original source form/Name : Movie

Video ID : 0 Format : MPEG-4 Visual Format profile : Advanced [email protected] Format settings, BVOP : 1 Format settings, QPel : No Format settings, GMC : No warppoints Format settings, Matrix : Default (MPEG) Codec ID : XVID Codec ID/Hint : XviD Duration : 2h 12mn Bit rate : 1 180 Kbps Width : 704 pixels Height : 384 pixels Display aspect ratio : 1.85:1 Frame rate : 25.000 fps Color space : YUV Chroma subsampling : 4:2:0 Bit depth : 8 bits Scan type : Progressive Compression mode : Lossy Bits/(Pixel*Frame) : 0.175 Stream size : 1.09 GiB (75%) Writing library : XviD 1.2.1 (UTC 2008-12-04)

Audio ID : 1 Format : AC-3 Format/Info : Audio Coding 3 Mode extension : CM (complete main) Format settings, Endianness : Big Codec ID : 2000 Duration : 2h 12mn Bit rate mode : Constant Bit rate : 384 Kbps Channel(s) : 6 channels Channel positions : Front: L C R, Side: L R, LFE Sampling rate : 48.0 KHz Compression mode : Lossy Stream size : 364 MiB (24%) Alignment : Split accross interleaves Interleave, duration : 40 ms (1.00 video frame) Interleave, preload duration : 500 ms

main-rutor.org

РУТОРГ :: Любовь во время холеры / Love in the Time of Cholera (2007) HDRip

Любовь во время холеры / Love in the Time of Cholera

Страна: США Производство: New Line Cinema, Grosvenor Park Media, Stone Village ProductionsГод выпуска: 2007Жанр: драма, мелодрамаПродолжительность: 02:12:41

Режиссер: Майк НьюэллАвторы сценария: Рональд Харвуд, Габриэль Гарсия Маркес

В ролях: Хавьер Бардем, Джованна Меццоджорно, Бенджамин Брэтт, Лив Шрайбер, Джон Легуизамо, Гектор Элизондо, Джина Бернард Форбс

Описание: Прекрасный, но бедный юноша Флорентино Ариза признаётся Фермине Дазе в вечной любви, однако девушка выходит замуж за более состоятельного поклонника. Но Флорентино не отступается от своей любви. Он верит. Верит и ждёт. Проходит путь от посыльного до преуспевающего судового магната, добивается богатства, славы и признания в надежде когда-нибудь заполучить свою Фермину. Проходит больше полувека. Роковая случайность и…влюблённые снова готовы кинуться в объятия друг друга...

Перевод: Профессиональный (полное дублирование) | ЛицензияСубтитры: нет

Качество: HDRipФормат: AVIВидео кодек: XviDАудио кодек: AC3Видео: 704x384 (1.85:1), 25.000 fps, XviD ~1 180 kbps avgАудио: 48.0 kHz, AC3 Dolby Digital, 3/2 (L,C,R,l,r) + LFE ch, ~384 kbps

Бюджет: $45 000 000Дата премьеры (мир): 4 октября 2007Дата премьеры (РФ): 6 марта 2008, «Парадиз»

Media Info

General Complete name : Love in the Time of Cholera.avi Format : AVI Format/Info : Audio Video Interleave File size : 1.46 GiB Duration : 2h 12mn Overall bit rate : 1 573 Kbps Movie name : Love in the Time of Cholera 2007 Genre : Drama Writing application : VirtualDubMod 1.5.10.2 (build 2540/release) Original source form/Name : Movie

Video ID : 0 Format : MPEG-4 Visual Format profile : Advanced [email protected] Format settings, BVOP : 1 Format settings, QPel : No Format settings, GMC : No warppoints Format settings, Matrix : Default (MPEG) Codec ID : XVID Codec ID/Hint : XviD Duration : 2h 12mn Bit rate : 1 180 Kbps Width : 704 pixels Height : 384 pixels Display aspect ratio : 1.85:1 Frame rate : 25.000 fps Color space : YUV Chroma subsampling : 4:2:0 Bit depth : 8 bits Scan type : Progressive Compression mode : Lossy Bits/(Pixel*Frame) : 0.175 Stream size : 1.09 GiB (75%) Writing library : XviD 1.2.1 (UTC 2008-12-04)

Audio ID : 1 Format : AC-3 Format/Info : Audio Coding 3 Mode extension : CM (complete main) Format settings, Endianness : Big Codec ID : 2000 Duration : 2h 12mn Bit rate mode : Constant Bit rate : 384 Kbps Channel(s) : 6 channels Channel positions : Front: L C R, Side: L R, LFE Sampling rate : 48.0 KHz Compression mode : Lossy Stream size : 364 MiB (24%) Alignment : Split accross interleaves Interleave, duration : 40 ms (1.00 video frame) Interleave, preload duration : 500 ms

xn--c1avfbif.org


Смотрите также