Скачать торрент любовь без обязательств


Скачать торрент Любовь без обязательств / Sleeping with Other People (2015) BDRip 1080p

Информация о фильмеНазвание: Любовь без обязательствОригинальное название: Sleeping with Other PeopleСтрана: СШАСтудия: Gloria Sanchez Productions, IM Global, Sidney Kimmel EntertainmentЖанр: комедияГод выпуска: 2015Продолжительность: 01:41:16

Перевод: Профессиональный (дублированный) iTunesCубтитры: английскиеОригинальная аудиодорожка: английский

Режиссер: Лесли Хэдланд / Leslye Headland

В ролях: Джейсон Судейкис, Элисон Бри, Джордан Карлос, Маргарита Левиева, Чарльз Кэйн, Адам Броди, Майкл Сирил Крейтон, Билли Айкнер, Джейсон Манцукас

Описание: Джейк — дамский угодник, каких свет не видывал. Он с легкостью завоевывает женские сердца, а потом разбивает их. Лэйни — его полная противоположность, она еще со студенческих лет влюблена в одного и того же мужчину, но чем больше проходит времени, тем очевиднее становится, что с ним у нее нет будущего. У этих двоих есть одна романтическая история из прошлого. История, которая может помочь им изменить себя. Но для этого им придется придерживаться между собой исключительно дружеских отношений, ведь секс в их жизни все лишь усложнял. Смогут эти двое удержаться от соблазна и помочь друг другу?

Тип релиза: BDRip 1080pКонтейнер: MKV

Видео: MPEG-4 AVC, 9095 Кбит/с, 1920x800, 23,976 fpsАудио: Rus, AC3, 384 kb/s (6 ch), 48 kHzАудио 2: Eng, AC3, 640 kb/s (6 ch), 48 kHzФормат субтитров: softsub (SRT)

MediaInfo

x264 [info]: frame I:1022 Avg QP:13.70 size:198803 x264 [info]: frame P:26861 Avg QP:15.45 size:104014 x264 [info]: frame B:117784 Avg QP:17.00 size: 34509

Format : Matroska Format version : Version 4 / Version 2 File size : 7.30 GiB Duration : 1h 41mn Overall bit rate : 10.3 Mbps Movie name : Любовь без обязательств. (Tonik) Encoded date : UTC 2016-01-05 04:50:32 Writing application : mkvmerge v7.1.0 ('Good Love') 64bit built on Jul 27 2014 13:06:55 Writing library : libebml v1.3.0 + libmatroska v1.4.1 _STATISTICS_WRITING_APP : mkvmerge v7.1.0 ('Good Love') 64bit built on Jul 27 2014 13:06:55 _STATISTICS_WRITING_DATE_UTC : 2016-01-05 04:50:32 _STATISTICS_TAGS : BPS DURATION NUMBER_OF_FRAMES NUMBER_OF_BYTES DURATION : 01:41:14.272000000 NUMBER_OF_FRAMES : 189821 NUMBER_OF_BYTES : 291565056

Video ID : 1 Format : AVC Format/Info : Advanced Video Codec Format profile : [email protected] Format settings, CABAC : Yes Format settings, ReFrames : 5 frames Codec ID : V_MPEG4/ISO/AVC Duration : 1h 41mn Bit rate : 9 095 Kbps Width : 1 920 pixels Height : 800 pixels Display aspect ratio : 2.40:1 Frame rate mode : Constant Frame rate : 23.976 fps Color space : YUV Chroma subsampling : 4:2:0 Bit depth : 8 bits Scan type : Progressive Bits/(Pixel*Frame) : 0.247 Stream size : 6.43 GiB (88%) Writing library : x264 core 142 r2431+42 c69a006 tMod [[email protected] X86_64] Encoding settings : cabac=1 / ref=5 / deblock=1:-3:-3 / analyse=0x3:0x133 / me=umh / subme=11 / psy=1 / fade_compensate=0.00 / psy_rd=0.90:0.00 / mixed_ref=1 / me_range=32 / chroma_me=1 / trellis=2 / 8x8dct=1 / cqm=0 / deadzone=21,11 / fast_pskip=0 / chroma_qp_offset=-2 / threads=12 / lookahead_threads=2 / sliced_threads=0 / nr=0 / decimate=0 / interlaced=0 / bluray_compat=0 / constrained_intra=0 / fgo=0 / bframes=8 / b_pyramid=2 / b_adapt=2 / b_bias=0 / direct=3 / weightb=1 / open_gop=0 / weightp=2 / keyint=240 / keyint_min=23 / scenecut=40 / intra_refresh=0 / rc_lookahead=60 / rc=crf / mbtree=0 / crf=16.5000 / qcomp=0.60 / qpmin=0:0:0 / qpmax=69:69:69 / qpstep=4 / vbv_maxrate=40000 / vbv_bufsize=30000 / crf_max=0.0 / nal_hrd=none / filler=0 / ip_ratio=1.40 / pb_ratio=1.30 / aq=1:0.90 / aq-sensitivity=10.00 / aq-factor=1.00:1.00:1.00 / aq2=0 / aq3=0 Language : English Default : Yes Forced : No

Audio #1 ID : 2 Format : AC-3 Format/Info : Audio Coding 3 Mode extension : CM (complete main) Format settings, Endianness : Big Codec ID : A_AC3 Duration : 1h 41mn Bit rate mode : Constant Bit rate : 384 Kbps Channel(s) : 6 channels Channel positions : Front: L C R, Side: L R, LFE Sampling rate : 48.0 KHz Bit depth : 16 bits Compression mode : Lossy Stream size : 278 MiB (4%) Title : iTunes Language : Russian Default : Yes Forced : No

Audio #2 ID : 3 Format : AC-3 Format/Info : Audio Coding 3 Mode extension : CM (complete main) Format settings, Endianness : Big Codec ID : A_AC3 Duration : 1h 41mn Bit rate mode : Constant Bit rate : 640 Kbps Channel(s) : 6 channels Channel positions : Front: L C R, Side: L R, LFE Sampling rate : 48.0 KHz Bit depth : 16 bits Compression mode : Lossy Stream size : 464 MiB (6%) Language : English Default : No Forced : No

Text ID : 4 Format : UTF-8 Codec ID : S_TEXT/UTF8 Codec ID/Info : UTF-8 Plain Text Language : English Default : No Forced : No

Menu 00:00:00.000 : en:Chapter 01 00:17:53.989 : en:Chapter 02 00:33:48.276 : en:Chapter 03 00:46:55.270 : en:Chapter 04 00:55:48.803 : en:Chapter 05 01:06:30.611 : en:Chapter 06 01:19:07.659 : en:Chapter 07 01:36:13.976 : en:Chapter 08 01:41:15.319 : en:Chapter 09

mrutor.org

Скачать торрент Любовь без обязательств / Sleeping with Other People (2015) BDRip 720р от SuperMin

Информация о фильмеНазвание: Любовь без обязательствОригинальное название: Sleeping with Other PeopleГод выхода: 2015Жанр: КомедияРежиссер: Лесли ХэдландВ ролях: Джейсон Судейкис, Элисон Бри, Джордан Карлос, Маргарита Левиева, Чарльз Кэйн, Адам Броди, Майкл Сирил Крейтон, Билли Айкнер, Джейсон Манцукас, Маргарет Одетт, Аманда Пит, Виктория Фрингс

О фильме: Джейк - дамский угодник, каких свет не видывал. Он с легкостью завоевывает женские сердца, а потом разбивает их. Лэйни - его полная противоположность, она еще со студенческих лет влюблена в одного и того же мужчину, но чем больше проходит времени, тем очевиднее становится, что с ним у нее нет будущего. У этих двоих есть одна романтическая история из прошлого. История, которая может помочь им изменить себя. Но для этого им придется придерживаться между собой исключительно дружеских отношений, ведь секс в их жизни все лишь усложнял. Смогут эти двое удержаться от соблазна и помочь друг другу?

Страна: СШАПродолжительность: 01:41:15Перевод: Профессиональный (полное дублирование) - iTunes

ФайлКодек: H.264Качество: BDRip 720р от SuperMinВидео: 1280x534 (2.40:1), 3364 kbps, 23.976 fpsЗвук: Русский (AC-3, 6ch, 384 kbps) Английский (AC-3, 6ch, 640 kbps)

MI

General Unique ID : 186397998952658905087681330565544389993 (0x8C3AF2E2F67F010CA454D6B6167FAD69) Complete name : F:ФИЛЬМЫЛюбовь.без.Обязательств.2015.x264.BDRip.720p.DUB.mkv Format : Matroska Format version : Version 4 / Version 2 File size : 3.17 GiB Duration : 1h 41mn Overall bit rate : 4 478 Kbps Encoded date : UTC 2016-01-12 12:54:20 Writing application : mkvmerge v8.3.0 ('Over the Horizon') 64bit Writing library : libebml v1.3.1 + libmatroska v1.4.2 DURATION : 01:41:15.552000000 NUMBER_OF_FRAMES : 189861 NUMBER_OF_BYTES : 291626496 _STATISTICS_WRITING_APP : mkvmerge v8.3.0 ('Over the Horizon') 64bit _STATISTICS_WRITING_DATE_UT : 2016-01-12 12:54:20 _STATISTICS_TAGS : BPS DURATION NUMBER_OF_FRAMES NUMBER_OF_BYTES

Video ID : 1 Format : AVC Format/Info : Advanced Video Codec Format profile : [email protected] Format settings, CABAC : Yes Format settings, ReFrames : 8 frames Codec ID : V_MPEG4/ISO/AVC Duration : 1h 41mn Bit rate : 3 364 Kbps Width : 1 280 pixels Height : 534 pixels Display aspect ratio : 2.40:1 Frame rate mode : Constant Frame rate : 23.976 fps Color space : YUV Chroma subsampling : 4:2:0 Bit depth : 8 bits Scan type : Progressive Bits/(Pixel*Frame) : 0.205 Stream size : 2.38 GiB (75%) Default : Yes Forced : No DURATION : 01:41:15.328000000 NUMBER_OF_FRAMES : 189854 NUMBER_OF_BYTES : 486026240 _STATISTICS_WRITING_APP : mkvmerge v8.3.0 ('Over the Horizon') 64bit _STATISTICS_WRITING_DATE_UT : 2016-01-12 12:54:20 _STATISTICS_TAGS : BPS DURATION NUMBER_OF_FRAMES NUMBER_OF_BYTES

Audio #1 ID : 2 Format : AC-3 Format/Info : Audio Coding 3 Mode extension : CM (complete main) Format settings, Endianness : Big Codec ID : A_AC3 Duration : 1h 41mn Bit rate mode : Constant Bit rate : 384 Kbps Channel(s) : 6 channels Channel positions : Front: L C R, Side: L R, LFE Sampling rate : 48.0 KHz Compression mode : Lossy Stream size : 278 MiB (9%) Language : Russian Default : No Forced : No DURATION : 01:41:15.361000000 NUMBER_OF_FRAMES : 145663 NUMBER_OF_BYTES : 2621078483 _STATISTICS_WRITING_APP : mkvmerge v8.3.0 ('Over the Horizon') 64bit _STATISTICS_WRITING_DATE_UT : 2016-01-12 12:54:20 _STATISTICS_TAGS : BPS DURATION NUMBER_OF_FRAMES NUMBER_OF_BYTES

Audio #2 ID : 3 Format : AC-3 Format/Info : Audio Coding 3 Mode extension : CM (complete main) Format settings, Endianness : Big Codec ID : A_AC3 Duration : 1h 41mn Bit rate mode : Constant Bit rate : 640 Kbps Channel(s) : 6 channels Channel positions : Front: L C R, Side: L R, LFE Sampling rate : 48.0 KHz Compression mode : Lossy Stream size : 464 MiB (14%) Title : AC3 5.1 Language : English Default : Yes Forced : No

Скриншот исходника

mrutor.org

Скачать торрент Любовь без обязательств / Sleeping with Other People (2015) WEBRip 720p

Информация о фильмеНазвание: Любовь без обязательствОригинальное название: Sleeping with Other PeopleГод выхода: 2015Жанр: комедияРежиссер: Лесли ХэдландВ ролях: Джейсон Судейкис, Элисон Бри, Джордан Карлос, Маргарита Левиева, Чарльз Кэйн, Адам Броди, Майкл Сирил Крейтон, Билли Айкнер, Джейсон Манцукас

О фильме: Джейк — дамский угодник, каких свет не видывал. Он с легкостью завоевывает женские сердца, а потом разбивает их. Лэйни — его полная противоположность, она еще со студенческих лет влюблена в одного и того же мужчину, но чем больше проходит времени, тем очевиднее становится, что с ним у нее нет будущего. У этих двоих есть одна романтическая история из прошлого. История, которая может помочь им изменить себя. Но для этого им придется придерживаться между собой исключительно дружеских отношений, ведь секс в их жизни все лишь усложнял. Смогут эти двое удержаться от соблазна и помочь друг другу?

Выпущено: США / Gloria Sanchez Productions, IM Global, Sidney Kimmel EntertainmentПродолжительность: 01:36:58Озвучивание: Любительское (двухголосое) [Parovoz Production]

ФайлФормат: MKVКачество: WEBRip 720pВидео: MPEG-4 AVC, 4019 kb/s, 1280x532Аудио: Russian / English: AC3, 192 kb/s (2 ch)

MI

Format : Matroska Format version : Version 2 File size : 2.96 GiB Duration : 1h 36mn Overall bit rate : 4 371 Kbps Encoded date : UTC 2015-12-08 23:08:04 Writing application : mkvmerge v7.8.0 ('River Man') 32bit built on Apr 3 2015 12:11:22 Writing library : libebml v1.3.1 + libmatroska v1.4.2

Video ID : 1 Format : AVC Format/Info : Advanced Video Codec Format profile : [email protected] Format settings, CABAC : Yes Format settings, ReFrames : 4 frames Codec ID : V_MPEG4/ISO/AVC Duration : 1h 36mn Bit rate : 4 019 Kbps Width : 1 280 pixels Height : 532 pixels Display aspect ratio : 2.40:1 Frame rate mode : Constant Frame rate : 25.000 fps Color space : YUV Chroma subsampling : 4:2:0 Bit depth : 8 bits Scan type : Progressive Bits/(Pixel*Frame) : 0.236 Stream size : 2.64 GiB (89%) Writing library : x264 core 130 r2273 b3065e6 Encoding settings : cabac=1 / ref=1 / deblock=1:0:0 / analyse=0x3:0x113 / me=hex / subme=2 / psy=1 / psy_rd=1.00:0.00 / mixed_ref=0 / me_range=16 / chroma_me=1 / trellis=0 / 8x8dct=1 / cqm=0 / deadzone=21,11 / fast_pskip=1 / chroma_qp_offset=0 / threads=6 / lookahead_threads=2 / sliced_threads=0 / nr=0 / decimate=1 / interlaced=0 / bluray_compat=0 / constrained_intra=0 / bframes=3 / b_pyramid=2 / b_adapt=1 / b_bias=0 / direct=1 / weightb=1 / open_gop=0 / weightp=1 / keyint=250 / keyint_min=25 / scenecut=40 / intra_refresh=0 / rc_lookahead=10 / rc=abr / mbtree=1 / bitrate=4019 / ratetol=1.0 / qcomp=0.60 / qpmin=0 / qpmax=69 / qpstep=4 / vbv_maxrate=62500 / vbv_bufsize=78125 / nal_hrd=none / ip_ratio=1.40 / aq=1:1.00 Language : English Default : Yes Forced : No Color range : Limited Color primaries : BT.709 Transfer characteristics : BT.709 Matrix coefficients : BT.709

Audio #1 ID : 2 Format : AC-3 Format/Info : Audio Coding 3 Mode extension : CM (complete main) Format settings, Endianness : Big Codec ID : A_AC3 Duration : 1h 36mn Bit rate mode : Constant Bit rate : 192 Kbps Channel(s) : 2 channels Channel positions : Front: L R Sampling rate : 48.0 KHz Bit depth : 16 bits Compression mode : Lossy Stream size : 133 MiB (4%) Language : Russian Default : Yes Forced : No

Audio #2 ID : 3 Format : AC-3 Format/Info : Audio Coding 3 Mode extension : CM (complete main) Format settings, Endianness : Big Codec ID : A_AC3 Duration : 1h 36mn Bit rate mode : Constant Bit rate : 192 Kbps Channel(s) : 2 channels Channel positions : Front: L R Sampling rate : 48.0 KHz Bit depth : 16 bits Compression mode : Lossy Stream size : 133 MiB (4%) Language : English Default : No Forced : No

mrutor.org

Любовь без обязательств через торрент

Размер: 1.47 GB | Добавлен: 1 год 10 мес. назад | Торрент скачан:141 раз
Реклама Дарим 3000 рублей за регистрацию, не упусти свой шанс получить шикарный бонус!!!

27-12-2015 18:34 Любовь без обязательств Скачать торрент  

Любовь без обязательств / Sleeping with Other People

«a romantic comedy with commitment issues»

Год выпуска: 2015Страна: СШАЖанр: комедияПродолжительность: 01:41:15Перевод: Любительский (двухголосый) [Parovoz Production]Субтитры: НетРежиссер: Лесли Хэдланд / Leslye HeadlandВ ролях: Джейсон Судейкис (Jake), Элисон Бри (Lainey), Джордан Карлос (R.A.), Маргарита Левиева (Hannah), Чарльз Кэйн (Helmet Kid), Адам Броди (Sam), Майкл Сирил Крейтон (Attentive Waiter), Билли Айкнер (SLAA Speaker), Джейсон Манцукас (Xander), Маргарет Одетт (Thea), Аманда Пит (Paula), Виктория Фрингс (Nurse)Описание: Джейк - дамский угодник, каких свет не видывал. Он с легкостью завоевывает женские сердца, а потом разбивает их. Лэйни - его полная противоположность, она еще со студенческих лет влюблена в одного и того же мужчину, но чем больше проходит времени, тем очевиднее становится, что с ним у нее нет будущего. У этих двоих есть одна романтическая история из прошлого. История, которая может помочь им изменить себя. Но для этого им придется придерживаться между собой исключительно дружеских отношений, ведь секс в их жизни все лишь усложнял. Смогут эти двое удержаться от соблазна и помочь друг другу?Рейтинг:

MPAA: R - Лицам до 17 лет обязательно присутствие взрослого

Качество: BDRip | исх. Sleeping with Other People 2015 COMPLETE BLURAY-PCH |Формат: AVIВидео кодек: XviDАудио кодек: AC3Видео: 720x304 (2.37:1), 23.976 fps, XviD build 73 ~1610 kbps avg, 0.31 bit/pixelАудио №1: 48 kHz, AC3 Dolby Digital, 2/0 (L,R) ch, ~192 kbps - RUSАудио №2: 48 kHz, AC3 Dolby Digital, 2/0 (L,R) ch, ~256 kbps - ENG

Релиз: & MegaPeer

Скачать Любовь без обязательств через торрент http://s008.radikal.ru/i305/1512/89/53b19bcc1a5e.png Скачать фильм Любовь без обязательств через торрент бесплантно в хорошем качестве Описание: Джейк - дамский угодник, каких свет не видывал. Он с легкостью завоевывает женские сердца, а потом разбивает их. Лэйни - его ... 2015-12-27 19:47 8.9 10 9

Loading...

Loading...

% Раздел Тема Автор DL S | L
R.G.Resident - Фильмы, Видео [ 1.46 GB ] Любовь без обязательств / Sleeping with Other People [2015 BDRip-AVC ] schultz Скачать
Фильмы [HD 720p, 1080p] (Хороший звук DUB, MVO) [ 7.3 GB ] Любовь без обязательств / Sleeping with Other People [2015 BDRip 1080p] Dub () $-DRON-$ Скачать
Фильмы 2015 [DVDrip, WEB-DLRip, HDrip] [ 1.42 GB ] Любовь без обязательств / Sleeping with Other People [2015 BDRip ] Twi7ter Скачать
Фильмы 2015 [DVDrip, WEB-DLRip, HDrip] [ 2.14 GB ] Любовь без обязательств / Sleeping with Other People [2015 BDRip-AVC от sokol_ok] Dub sokol_ok Скачать
Фильмы 2015 [DVDrip, WEB-DLRip, HDrip] [ 1.42 GB ] Любовь без обязательств / Sleeping with Other People [2015 BDRip-AVC от sokol_ok] Dub sokol_ok Скачать
Фильмы 2015 [DVDrip, WEB-DLRip, HDrip] [ 1.45 GB ] Любовь без обязательств / Sleeping with Other People [2015 HDRip / ] MihailHD Скачать
T Фильмы с украинским озвучиванием [ 1.44 GB ] Любовь без обязательств / Кохання без зобов'язань / Sleeping with Other People [2015 WEBRip] [Ukr DUB] [LINE] killermax2013 Скачать

Последний раз редактировалось: Twi7ter (2015-12-27 19:52), всего редактировалось 2 раз(а)

Рекламный пират

27-12-2015 19:49 Любовь без обязательств Скачать торрент  

Рип без всякой рекламы и прочей гадости!

27-12-2015 20:18 Любовь без обязательств Скачать торрент  

Twi7ter писал(а):

Рип без всякой рекламы и прочей гадости!

Ну вот и настало время глянуть

Дорогой пользователь! Огромная просьба, поблагодарите релизера, оцените раздачу и оставьте свои комментарий, если Вы скачали Любовь без обязательств через торрент бесплатно! Внесите свою лепту в развитие PiratBit!

Комментировать посты могут только пользователи прошедшие не сложную регистрацию

Любовь без обязательств через торрент Скачать бесплатно Любовь без обязательств Любовь без обязательств скачать торрент Любовь без обязательств смотреть онлайн Cкачать фильм Любовь без обязательств бесплатно Любовь без обязательств скачать торрент в хорошем качестве Любовь без обязательств смотреть онлайн бесплатно в хорошем качестве

Вы можете начинать темыВы можете отвечать на сообщенияВы не можете редактировать свои сообщенияВы не можете удалять свои сообщенияВы не можете голосовать в опросахВы не можете прикреплять файлы к сообщениямВы можете скачивать файлы

piratbit.ru


Смотрите также